Абулеле / Abulele (Йонатан Гева) [2015, Израиль, приключения, семейный, WEB-DLRip] (DVO : Мария Белкина, Александр Галл)

Ответить на тему
 

bbk ®

Стаж: 7 лет

Сообщений: 435

Симпатии: 479

Абулеле / Abulele- Страна: Израиль
Жанр: приключения, семейный
Год выпуска: 2015
Продолжительность: 01:33:39
Перевод: Профессиональный (двухголосый закадровый) | [Мария Белкина, Александр Галл]
Cубтитры: нет
Режиссер: Йонатан Гева
В ролях: Идан Баркай, Макрам Хури, Нати Клюгер, Миха Селектар, Йехуда Мор, Одед Леопольд, Дэнни Кэрпел…
Описание: Год назад 10-летний Адам потерял старшего брата. Он погиб в автокатастрофе. Прошло еще слишком мало времени, чтобы справиться с такой потерей. В семье у Адама до сих пор траур, и часто мальчик чувствует себя очень одиноко. Но однажды герой фильма знакомится с древним чудовищем Абулеле! По легенде, эти существа очень опасны, но в действительности монстрик оказывается очень игривым и весьма дружелюбным. Чтобы вернуться домой, Абулеле нужна помощь своего нового друга.
Рейтинг: 93 IMDb users have given a weighted average vote of 7.8 / 10
Качество видео: WEB-DLRip
Формат видео: AVI
Видео: XviD, 720x304 (2.37:1), 25 FPS, 1556 kb/s
Аудио 1: Русский: AC3, 48.0 kHz, 192 kb/s (2 ch)
Аудио 2: Иврит: AC3, 48.0 kHz, 448 kb/s (6 ch)

MediaInfo

General
Complete name : D:\Downloads\Abulele (2015) WEB-DLRip.avi
Format : AVI
Format/Info : Audio Video Interleave
Format profile : OpenDML
File size : 1.45 GiB
Duration : 1 h 34 min
Overall bit rate : 2 207 kb/s
Writing application : XviD4PSP 6.0 / 54.29.105
Video
ID : 0
Format : xvid
Codec ID : xvid
Duration : 1 h 33 min
Bit rate : 1 556 kb/s
Width : 720 pixels
Height : 304 pixels
Display aspect ratio : 2.40:1
Frame rate : 25.000 FPS
Scan type : Progressive
Bits/(Pixel*Frame) : 0.284
Stream size : 1.02 GiB (70%)
Audio #1
ID : 1
Format : AC-3
Format/Info : Audio Coding 3
Mode extension : CM (complete main)
Format settings, Endianness : Big
Codec ID : 2000
Duration : 1 h 33 min
Bit rate mode : Constant
Bit rate : 192 kb/s
Channel(s) : 2 channels
Channel positions : Front: L R
Sampling rate : 48.0 kHz
Frame rate : 31.250 FPS (1536 spf)
Bit depth : 16 bits
Compression mode : Lossy
Stream size : 129 MiB (9%)
Alignment : Aligned on interleaves
Interleave, duration : 32 ms (0.80 video frame)
Audio #2
ID : 2
Format : AC-3
Format/Info : Audio Coding 3
Mode extension : CM (complete main)
Format settings, Endianness : Big
Codec ID : 2000
Duration : 1 h 34 min
Bit rate mode : Constant
Bit rate : 448 kb/s
Channel(s) : 6 channels
Channel positions : Front: L C R, Side: L R, LFE
Sampling rate : 48.0 kHz
Frame rate : 31.250 FPS (1536 spf)
Bit depth : 16 bits
Compression mode : Lossy
Stream size : 301 MiB (20%)
Alignment : Aligned on interleaves
Interleave, duration : 32 ms (0.80 video frame)
Title : Surround

Скриншот c названием фильма

Скриншоты




Создавать темы 01-Фев-2017 02:24

[Профиль]  [ЛС] 
Показать сообщения:    
Ответить на тему

Текущее время: 20-Ноя 05:30

Часовой пояс: UTC + 5



Вы не можете начинать темы
Вы не можете отвечать на сообщения
Вы не можете редактировать свои сообщения
Вы не можете удалять свои сообщения
Вы не можете голосовать в опросах
Вы не можете прикреплять файлы к сообщениям
Вы не можете скачивать файлы