Скачать Три богатыря и Морской царь(Константин Феоктистов) [2016 г., мультфильм, комедия, приключения, WEB-DL 1080p] [Лицензия] в Тас-икс (Tas-ix)

Ответить на тему
 

Admiral ®

Стаж: 4 года 10 месяцев

Сообщений: 311

Симпатии: 362

Три богатыря и Морской царь- -ИнформацияГод выпуска: 2016
Страна: Россия
Жанр: мультфильм, комедия, приключения
Продолжительность: 01:13:37
Перевод: Не требуется [Лицензия]
Примечание: Релиз без рекламы.
-РежиссёрКонстантин Феоктистов-Роли озвучивалиСергей Маковецкий, Дмитрий Высоцкий, Олег Куликович, Валерий Соловьёв, Дмитрий Быковский-Ромашов, Елена Шульман, Лия Медведева, Мария Цветкова-Овсянникова-ОписаниеЧто делать, если твое сердце разбито, а чувства растоптаны? Часами болтать по телефону с лучшей подругой? Есть шоколад и валяться в кровати, обливаясь слезами? Как жаль, что у Гвендолин совершенно нет на это времени. А все потому, что на семнадцатом году жизни у нее совершенно случайно обнаружился ген путешественника во времени. Голова идет кругом: хронограф, круг крови, Тайна Двенадцати, все эти балы, суаре, схватки и путешествия по темным лабиринтам прошлого, а теперь еще кто-то за ней охотится, и единственное, о чем ей действительно стоит думать, так это о том, чтобы выжить! Все нити ведут в прошлое, к таинственному графу Сен-Жермену, который ведет опасную игру, чтобы заполучить источник вечной жизни. А тут разбитое сердце! Гидеон, кто же ты — друг или враг? Что значат твои признания в любви — шутка, разыгранный как по нотам план графа или все же настоящее чувство? Разгадать все тайны Гвендолин помогут ее верные друзья.-Тех. ДанныеКачество: WEB-DL 1080p
Формат: MKV
Видео: MPEG-4 AVC, 5100 Кбит/с, 1920x1040
Аудио: AC3, 384 kb/s (6 ch)
-

MI

General
Unique ID : 216474729713140849072051343614996509259 (0xA2DB8433D2DEF2CB9B5A9A27C619F24B)
Complete name : TroyKa.BanduKoFF.i.Tsar.iz.MoRYa.2O16.O.WEB-DL.1O8Op.mkv
Format : Matroska
Format version : Version 2
File size : 2.83 GiB
Duration : 1h 13mn
Overall bit rate : 5 499 Kbps
Encoded date : UTC 2017-02-01 19:20:50
Writing application : mkvmerge v8.3.0 ('Over the Horizon') 64bit
Writing library : libebml v1.3.1 + libmatroska v1.4.2
DURATION : 01:13:37.408000000
NUMBER_OF_FRAMES : 138044
NUMBER_OF_BYTES : 212035584
_STATISTICS_WRITING_APP : mkvmerge v8.3.0 ('Over the Horizon') 64bit
_STATISTICS_WRITING_DATE_UTC : 2017-02-01 19:20:50
_STATISTICS_TAGS : BPS DURATION NUMBER_OF_FRAMES NUMBER_OF_BYTES
Video
ID : 1
Format : AVC
Format/Info : Advanced Video Codec
Format profile : [email protected]
Format settings, CABAC : Yes
Format settings, ReFrames : 4 frames
Codec ID : V_MPEG4/ISO/AVC
Duration : 1h 13mn
Bit rate : 5 005 Kbps
Width : 1 920 pixels
Height : 1 040 pixels
Display aspect ratio : 16:9
Frame rate : 25.000 fps
Color space : YUV
Chroma subsampling : 4:2:0
Bit depth : 8 bits
Scan type : Progressive
Bits/(Pixel*Frame) : 0.100
Stream size : 2.57 GiB (91%)
Language : English
Default : Yes
Forced : No
Color primaries : BT.709-5, BT.1361, IEC 61966-2-4, SMPTE RP177
Transfer characteristics : BT.709-5, BT.1361
Matrix coefficients : BT.709-5, BT.1361, IEC 61966-2-4 709, SMPTE RP177
Audio
ID : 2
Format : AC-3
Format/Info : Audio Coding 3
Mode extension : CM (complete main)
Codec ID : A_AC3
Duration : 1h 13mn
Bit rate mode : Constant
Bit rate : 384 Kbps
Channel(s) : 6 channels
Channel positions : Front: L C R, Side: L R, LFE
Sampling rate : 48.0 KHz
Bit depth : 16 bits
Compression mode : Lossy
Stream size : 202 MiB (7%)
Language : Russian
Default : Yes
Forced : No
Menu
00:00:00.000 : en:Глава 1
00:05:35.600 : en:Глава 2
00:12:04.840 : en:Глава 3
00:19:11.360 : en:Глава 4
00:25:12.680 : en:Глава 5
00:30:19.080 : en:Глава 6
00:36:18.680 : en:Глава 7
00:41:13.440 : en:Глава 8
00:45:06.240 : en:Глава 9
00:50:40.040 : en:Глава 10
00:58:24.600 : en:Глава 11
01:03:35.880 : en:Глава 12

Скриншоты



Последний раз редактировалось: Admiral (2017-02-03 05:59), всего редактировалось 1 раз

Создавать темы 02-Фев-2017 08:28

[Профиль]  [ЛС] 

kat222000

Стаж: 7 лет 7 месяцев

Сообщений: 626

Симпатии: 1080

Admiral, Здравствуйте! Добавьте медиоинфо пожалуйста.

Создавать темы 02-Фев-2017 09:09

[Профиль]  [ЛС] 

Admiral ®

Стаж: 4 года 10 месяцев

Сообщений: 311

Симпатии: 362

kat222000, Пожалуйста, закиньте в релиз. Вот

MI

General
Unique ID : 216474729713140849072051343614996509259 (0xA2DB8433D2DEF2CB9B5A9A27C619F24B)
Complete name : TroyKa.BanduKoFF.i.Tsar.iz.MoRYa.2O16.O.WEB-DL.1O8Op.mkv
Format : Matroska
Format version : Version 2
File size : 2.83 GiB
Duration : 1h 13mn
Overall bit rate : 5 499 Kbps
Encoded date : UTC 2017-02-01 19:20:50
Writing application : mkvmerge v8.3.0 ('Over the Horizon') 64bit
Writing library : libebml v1.3.1 + libmatroska v1.4.2
DURATION : 01:13:37.408000000
NUMBER_OF_FRAMES : 138044
NUMBER_OF_BYTES : 212035584
_STATISTICS_WRITING_APP : mkvmerge v8.3.0 ('Over the Horizon') 64bit
_STATISTICS_WRITING_DATE_UTC : 2017-02-01 19:20:50
_STATISTICS_TAGS : BPS DURATION NUMBER_OF_FRAMES NUMBER_OF_BYTES
Video
ID : 1
Format : AVC
Format/Info : Advanced Video Codec
Format profile : [email protected]
Format settings, CABAC : Yes
Format settings, ReFrames : 4 frames
Codec ID : V_MPEG4/ISO/AVC
Duration : 1h 13mn
Bit rate : 5 005 Kbps
Width : 1 920 pixels
Height : 1 040 pixels
Display aspect ratio : 16:9
Frame rate : 25.000 fps
Color space : YUV
Chroma subsampling : 4:2:0
Bit depth : 8 bits
Scan type : Progressive
Bits/(Pixel*Frame) : 0.100
Stream size : 2.57 GiB (91%)
Language : English
Default : Yes
Forced : No
Color primaries : BT.709-5, BT.1361, IEC 61966-2-4, SMPTE RP177
Transfer characteristics : BT.709-5, BT.1361
Matrix coefficients : BT.709-5, BT.1361, IEC 61966-2-4 709, SMPTE RP177
Audio
ID : 2
Format : AC-3
Format/Info : Audio Coding 3
Mode extension : CM (complete main)
Codec ID : A_AC3
Duration : 1h 13mn
Bit rate mode : Constant
Bit rate : 384 Kbps
Channel(s) : 6 channels
Channel positions : Front: L C R, Side: L R, LFE
Sampling rate : 48.0 KHz
Bit depth : 16 bits
Compression mode : Lossy
Stream size : 202 MiB (7%)
Language : Russian
Default : Yes
Forced : No
Menu
00:00:00.000 : en:Глава 1
00:05:35.600 : en:Глава 2
00:12:04.840 : en:Глава 3
00:19:11.360 : en:Глава 4
00:25:12.680 : en:Глава 5
00:30:19.080 : en:Глава 6
00:36:18.680 : en:Глава 7
00:41:13.440 : en:Глава 8
00:45:06.240 : en:Глава 9
00:50:40.040 : en:Глава 10
00:58:24.600 : en:Глава 11
01:03:35.880 : en:Глава 12

Создавать темы 02-Фев-2017 20:03

[Профиль]  [ЛС] 

Rikardo

Стаж: 4 года 11 месяцев

Сообщений: 58

Симпатии: 5

Прикольный файл для скачки "Тройка Бандюков и царь Моря"!!!?

Создавать темы 02-Фев-2017 22:24

[Профиль]  [ЛС] 
Показать сообщения:    
Ответить на тему

Текущее время: 15-Ноя 22:39

Часовой пояс: UTC + 5



Вы не можете начинать темы
Вы не можете отвечать на сообщения
Вы не можете редактировать свои сообщения
Вы не можете удалять свои сообщения
Вы не можете голосовать в опросах
Вы не можете прикреплять файлы к сообщениям
Вы не можете скачивать файлы