Горячая кровь юности / Hоt Yоung Blооds (Ён-у Ли) [2014, Корея Южная, комедия, мелодрама, HDRip] (DVO : Марина Кириченко и Валерий Феодосов)

Ответить на тему
 

mr554446 ®

Стаж: 9 месяцев

Сообщений: 10

Симпатии: 4

Горячая кровь юности / Hоt Yоung Blооds
Страна: Корея Южная
Жанр: комедия, мелодрама
Год выпуска: 2014
Продолжительность: 02:01:46
Перевод: Любительский (двухголосый закадровый) Доп. инфо о переводе Марина Кириченко и Валерий Феодосов
Cубтитры: нет
Режиссер: Ён-у Ли
В ролях: Бо Ён Пак, Чон Сок Ли, Се Ён Ли, Ён Кван Ким, Ми Ран Ра, Хи Вон Ким, Чон Мин Пак (ІІ), Хэ Хё Квон, Хён Тэк Син, Су Джин Чон
Описание: В средней школе сельского городка учится Чжун Гил, являющийся самым большим сердцеедом города. Этот Казанова может одним взглядом и взмахом ресниц заставить любую девушку упасть к его ногам. Не могла ускользнуть от его чар и первая хулиганка школы «маленький дьяволенок» Ён Сук, влюбившись в парня без памяти. Однако, нашему красавчику ее любовь не нужна.
В один прекрасный день в город из Сеула переезжает Со Хи. Девушка так прекрасна и невинна в своих воздушных белых платьях, как ангелочек, что при виде красотки тают сердца всех без исключения парней, и в нее влюбляются все поголовно. Не минула эта участь и Чжун Гила, отдавшего ей свое сердце навеки.
Ощущая угрозу со стороны Со Хи, считая ее соперницей, Ён Сук начинает борьбу. Между тем, друг Ён Сук — Кван Сик, являющийся первый бойцом в своей школе, подозревая некую связь между своей девушкой и Чжун Гилом, начинает преследовать Со Хи, в которую влюблен Чжун Гил…
Качество видео: HDRip
Формат видео: MKV
Видео: 640х272 (2.35:1), 23.976 fрs, ХvіD buіld 50 ~723 kbрs аvg, 0.17 bіt/ріхеl
Аудио: 48 kHz, MРЕG Lауеr 3, 2 сh, ~128.00 kbрs аvg

MediaInfo

Format : Matroska
Format version : Version 2
File size : 1.85 GiB
Duration : 2h 1mn
Overall bit rate : 2 175 Kbps
Encoded date : UTC 2014-06-17 19:39:12
Writing application : mkvmerge v5.4.0 ('Piper') built on Mar 10 2012 13:34:39
Writing library : libebml v1.2.3 + libmatroska v1.3.0
Video
ID : 1
Format : AVC
Format/Info : Advanced Video Codec
Format profile : [email protected]
Format settings, CABAC : Yes
Format settings, ReFrames : 4 frames
Codec ID : V_MPEG4/ISO/AVC
Duration : 2h 1mn
Bit rate : 2 000 Kbps
Width : 848 pixels
Height : 368 pixels
Display aspect ratio : 2.35:1
Frame rate mode : Constant
Frame rate : 29.970 (30000/1001) fps
Color space : YUV
Chroma subsampling : 4:2:0
Bit depth : 8 bits
Scan type : Progressive
Bits/(Pixel*Frame) : 0.214
Stream size : 1.65 GiB (89%)
Writing library : x264 core 130 r2273 b3065e6
Encoding settings : cabac=1 / ref=1 / deblock=1:0:0 / analyse=0x1:0x111 / me=hex / subme=2 / psy=1 / psy_rd=1.00:0.00 / mixed_ref=0 / me_range=16 / chroma_me=1 / trellis=0 / 8x8dct=0 / cqm=0 / deadzone=21,11 / fast_pskip=1 / chroma_qp_offset=0 / threads=3 / lookahead_threads=1 / sliced_threads=0 / nr=0 / decimate=1 / interlaced=0 / bluray_compat=0 / constrained_intra=0 / bframes=3 / b_pyramid=2 / b_adapt=1 / b_bias=0 / direct=1 / weightb=1 / open_gop=0 / weightp=1 / keyint=300 / keyint_min=30 / scenecut=40 / intra_refresh=0 / rc_lookahead=10 / rc=abr / mbtree=1 / bitrate=2000 / ratetol=1.0 / qcomp=0.60 / qpmin=0 / qpmax=69 / qpstep=4 / vbv_maxrate=20000 / vbv_bufsize=25000 / nal_hrd=none / ip_ratio=1.40 / aq=1:1.00
Language : Korean
Default : Yes
Forced : No
Color range : Limited
Color primaries : BT.709
Transfer characteristics : BT.709
Matrix coefficients : BT.709
Audio
ID : 2
Format : AC-3
Format/Info : Audio Coding 3
Mode extension : CM (complete main)
Format settings, Endianness : Big
Codec ID : A_AC3
Duration : 2h 1mn
Bit rate mode : Constant
Bit rate : 192 Kbps
Channel(s) : 2 channels
Channel positions : Front: L R
Sampling rate : 48.0 KHz
Frame rate : 31.250 fps (1536 spf)
Compression mode : Lossy
Stream size : 167 MiB (9%)
Title : AC3 2.0CH @ 192K [Ольга Гринтиева и Франк Цветков | GREEN TEA]
Language : Russian
Default : Yes
Forced : Yes

Скриншоты




Создавать темы 24-Фев-2017 02:17

[Профиль]  [ЛС] 
Показать сообщения:    
Ответить на тему

Текущее время: 18-Окт 23:32

Часовой пояс: UTC + 5



Вы не можете начинать темы
Вы не можете отвечать на сообщения
Вы не можете редактировать свои сообщения
Вы не можете удалять свои сообщения
Вы не можете голосовать в опросах
Вы не можете прикреплять файлы к сообщениям
Вы не можете скачивать файлы