Скачать Притяжение (Фёдор Бондарчук) [2017 г.,фантастика, WEB-DL 1080p] [iTunes] в Тас-икс (Tas-ix)

Ответить на тему
 

ruhal ®

Стаж: 3 года 8 месяцев

Сообщений: 2039

Симпатии: 2486

-Притяжение- Год выпуска: 2017
Страна: Россия
Жанр: фантастика
Продолжительность: 02:02:35
Перевод: Не требуется [iTunes] -Режиссёр:Фёдор Бондарчук-В ролях:Ирина Старшенбаум, Александр Петров, Риналь Мухаметов, Олег Меньшиков, Евгений Сангаджиев, Алексей Маслодудов, Никита Кукушкин, Евгений Михеев, Антон Шпиньков, Евгений Коряковский-Описание:Как только что стало известно, сбитый над Москвой неопознанный объект имеет, возможно, внеземное происхождение. Большая часть столичного Чертанова оцеплена, к месту крушения стягиваются представители силовых структур, решается вопрос об эвакуации местных жителей. По словам нашего источника в Минобороны, сейчас специальная комиссия пытается вступить в контакт с так называемыми «гостями». В эти минуты мы готовим экстренный выпуск новостей и о развитии событий вы узнаете первыми…-Качество: WEB-DL 1080p
Формат: MKV
Видео: MPEG4 Video (H264) 1920x800 23.976fps
Аудио: Dolby AC3 48000Hz 6ch 384kbps
-

MI

General
Unique ID : 217015129069571468377801183611531378577 (0xA34397F2A1B27D72B88CD02D56F53F91)
Complete name : E:\Films\Prityazhenie.2017.WEB-DL 1080p.mkv
Format : Matroska
Format version : Version 4 / Version 2
File size : 4.60 GiB
Duration : 2h 12mn
Overall bit rate : 4 967 Kbps
Movie name : PRITYAZHENIE_WEB_DL_1080p-BLUEBIRD
Encoded date : UTC 2017-02-27 19:17:59
Writing application : mkvmerge v6.9.1 ('Blue Panther') 32bit built on Apr 18 2014 18:15:44
Writing library : libebml v1.3.0 + libmatroska v1.4.1
Video
ID : 1
Format : AVC
Format/Info : Advanced Video Codec
Format profile : [email protected]
Format settings, CABAC : Yes
Format settings, ReFrames : 5 frames
Codec ID : V_MPEG4/ISO/AVC
Duration : 2h 12mn
Bit rate : 4 484 Kbps
Width : 1 920 pixels
Height : 800 pixels
Display aspect ratio : 2.40:1
Frame rate mode : Constant
Frame rate : 23.976 fps
Color space : YUV
Chroma subsampling : 4:2:0
Bit depth : 8 bits
Scan type : Progressive
Bits/(Pixel*Frame) : 0.122
Stream size : 4.16 GiB (90%)
Title : PRITYAZHENIE_WEB_DL_1080p-BLUEBIRD
Language : Russian
Default : Yes
Forced : No
Color primaries : BT.709
Transfer characteristics : BT.709
Matrix coefficients : BT.709
Color range : Limited
Audio
ID : 2
Format : AC-3
Format/Info : Audio Coding 3
Mode extension : CM (complete main)
Format settings, Endianness : Big
Codec ID : A_AC3
Duration : 2h 12mn
Bit rate mode : Constant
Bit rate : 384 Kbps
Channel(s) : 6 channels
Channel positions : Front: L C R, Side: L R, LFE
Sampling rate : 48.0 KHz
Bit depth : 16 bits
Compression mode : Lossy
Stream size : 364 MiB (8%)
Title : [ORIGINAL] DD 5.1 @ 384 kbps (iTunes)
Language : Russian
Default : Yes
Forced : No
Menu
00:00:00.000 : en:1
00:08:20.458 : en:2
00:16:31.407 : en:3
00:23:21.608 : en:4
00:32:30.949 : en:5
00:39:22.068 : en:6
00:46:54.770 : en:7
00:53:36.254 : en:8
01:02:24.240 : en:9
01:09:37.339 : en:10
01:17:30.520 : en:11
01:26:37.984 : en:12
01:30:14.742 : en:13
01:38:56.138 : en:14
01:49:44.619 : en:15
01:59:57.315 : en:16

Создавать темы 28-Фев-2017 10:21

[Профиль]  [ЛС] 

kladei

Стаж: 8 лет

Сообщений: 9

Симпатии: 1

Стока ожиданий, а фильм как всегда((( ему противопоказано фильмы снимать(

Создавать темы 12-Мар-2017 21:17

[Профиль]  [ЛС] 
Показать сообщения:    
Ответить на тему

Текущее время: 13-Дек 21:40

Часовой пояс: UTC + 5



Вы не можете начинать темы
Вы не можете отвечать на сообщения
Вы не можете редактировать свои сообщения
Вы не можете удалять свои сообщения
Вы не можете голосовать в опросах
Вы не можете прикреплять файлы к сообщениям
Вы не можете скачивать файлы