Скачать Викинг (Расширенная версия) (Андрей Кравчук) [2016, Драма, история, WEB-DL 1080p] [iTunes] в Тас-икс (Tas-ix)

Ответить на тему
 

ruhal ®

Стаж: 3 года 8 месяцев

Сообщений: 2039

Симпатии: 2486

- -Викинг (Расширенная версия)- Жанр: Драма, история
Год выпуска: 2016
Продолжительность: 02:28:47-Режиссёр: Андрей Кравчук-В ролях: Данила Козловский, Светлана Ходченкова, Максим Суханов, Игорь Петренко, Андрей Смоляков, Владимир Епифанцев, Александра Бортич, Кирилл Плетнёв, Александр Устюгов, Ростислав Бершауэр-Описание: Раннее Средневековье. Время тяжелых мечей и темных законов крови. Правящий род в раздоре. Вина за случайную смерть брата легла на Великого Князя. По закону мстить ему должен младший брат — бастард. За отказ убивать он заплатит всем, что у него было, потому что «для мира нужно больше мечей, чем для войны»…-Качество видео: WEB-DL 1080p
Формат видео: MKV
Видео: MPEG4 Video (H264) 1920x804 25fps
Аудио: Dolby AC3 48000Hz 6ch 384kbps
-

MediaInfo

General
Unique ID : 214770585987210597842049556404999210862 (0xA1934F6E07099075A59C361F305AC76E)
Complete name : E:\Films\HD\Viking.2016.WEB-DL 1080p.mkv
Format : Matroska
Format version : Version 4 / Version 2
File size : 5.16 GiB
Duration : 2h 28mn
Overall bit rate : 4 963 Kbps
Movie name : VIKING_UNRATED_WEB_DL_1080p-BLUEBIRD
Encoded date : UTC 2017-03-02 19:21:30
Writing application : mkvmerge v6.9.1 ('Blue Panther') 32bit built on Apr 18 2014 18:15:44
Writing library : libebml v1.3.0 + libmatroska v1.4.1
Video
ID : 1
Format : AVC
Format/Info : Advanced Video Codec
Format profile : [email protected]
Format settings, CABAC : Yes
Format settings, ReFrames : 5 frames
Codec ID : V_MPEG4/ISO/AVC
Duration : 2h 28mn
Bit rate : 4 481 Kbps
Width : 1 920 pixels
Height : 804 pixels
Display aspect ratio : 2.40:1
Frame rate mode : Constant
Frame rate : 25.000 fps
Color space : YUV
Chroma subsampling : 4:2:0
Bit depth : 8 bits
Scan type : Progressive
Bits/(Pixel*Frame) : 0.116
Stream size : 4.66 GiB (90%)
Title : VIKING_UNRATED_WEB_DL_1080p-BLUEBIRD
Language : Russian
Default : Yes
Forced : No
Color primaries : BT.709
Transfer characteristics : BT.709
Matrix coefficients : BT.709
Color range : Limited
Audio
ID : 2
Format : AC-3
Format/Info : Audio Coding 3
Mode extension : CM (complete main)
Format settings, Endianness : Big
Codec ID : A_AC3
Duration : 2h 28mn
Bit rate mode : Constant
Bit rate : 384 Kbps
Channel(s) : 6 channels
Channel positions : Front: L C R, Side: L R, LFE
Sampling rate : 48.0 KHz
Bit depth : 16 bits
Compression mode : Lossy
Stream size : 409 MiB (8%)
Title : [ORIGINAL] DD 5.1 @ 384 kbps
Language : Russian
Default : Yes
Forced : No
Menu
00:00:00.000 : en:Глава 1
00:06:52.400 : en:Глава 2
00:11:23.640 : en:Глава 3
00:16:08.960 : en:Глава 4
00:22:59.080 : en:Глава 5
00:29:13.640 : en:Глава 6
00:34:05.240 : en:Глава 7
00:40:15.200 : en:Глава 8
00:46:52.760 : en:Глава 9
00:53:41.240 : en:Глава 10
00:58:49.840 : en:Глава 11
01:04:29.880 : en:Глава 12
01:11:00.640 : en:Глава 13
01:18:14.000 : en:Глава 14
01:24:44.680 : en:Глава 15
01:38:00.680 : en:Глава 16
01:42:28.040 : en:Глава 17
01:50:02.040 : en:Глава 18
01:55:09.560 : en:Глава 12
02:01:02.240 : en:Глава 13
02:05:57.920 : en:Глава 14
02:10:13.840 : en:Глава 15

Создавать темы 03-Мар-2017 09:10

[Профиль]  [ЛС] 
Показать сообщения:    
Ответить на тему

Текущее время: 13-Дек 21:46

Часовой пояс: UTC + 5



Вы не можете начинать темы
Вы не можете отвечать на сообщения
Вы не можете редактировать свои сообщения
Вы не можете удалять свои сообщения
Вы не можете голосовать в опросах
Вы не можете прикреплять файлы к сообщениям
Вы не можете скачивать файлы