Кольца Нибелунгов / Siegfried (Свен Унтервальдт мл.) [2005, Германия, комедия, DVDRip] (MVO)

Ответить на тему
 

Erzya ®

Стаж: 9 месяцев 19 дней

Сообщений: 15

Симпатии: 4

Кольца Нибелунгов / Siegfried
Страна: Германия
Жанр: комедия
Год выпуска: 2005
Продолжительность: 89 мин
Перевод: Профессиональный (многоголосый закадровый)
Cубтитры: нет
Режиссер: Свен Унтервальдт мл.
В ролях: Том Герхардт
Доркас Кифер
Фолькер Бюдтс
Аксель Нойманн
Ян Соснек
Даниэла Вутте
Михаэль Бранднер
Мирко Нончев
Маркус Мария Профитлич
Диана Фрэнк
Описание: Это было мрачное время. Зло торжествовало. И когда казалось, что все надежды умерли… Появился Зигфрид! Уже в младенчестве он обладал нечеловеческой силой. Влюбившись с первого взгляда в прекрасную Кримгильду, сестру короля Бургундии, вместе со своим верным другом — свином Зигфрид отправляется искать любимую.
Он знает, что Кримгильда с нетерпением ждет его в своем замке, и никакие драконы не смогут его остановить. Но силы зла еще никогда не были так сильны и злобны. Одолеть их способен только храбрейший из храбрых. Если Бог не выдаст и свина не съедят…
Качество видео:
Формат видео: AVI
Видео: Format : xvid Codec ID : xvid Duration : 1h 25mn Bit rate : 390 Kbps W
Аудио: Format : MPEG Audio Format version : Version 1 Format profile : Layer 3 Mode :

MediaInfo

Format : AVI
Format/Info : Audio Video Interleave
File size : 279 MiB
Duration : 1h 25mn
Overall bit rate : 458 Kbps
Writing application : Lavf54.42.100
Video
ID : 0
Format : xvid
Codec ID : xvid
Duration : 1h 25mn
Bit rate : 390 Kbps
Width : 320 pixels
Height : 176 pixels
Display aspect ratio : 2.35:1
Frame rate : 25.000 fps
Bits/(Pixel*Frame) : 0.277
Stream size : 238 MiB (85%)
Audio
ID : 1
Format : MPEG Audio
Format version : Version 1
Format profile : Layer 3
Mode : Joint stereo
Mode extension : MS Stereo
Codec ID : 55
Codec ID/Hint : MP3
Duration : 1h 25mn
Bit rate mode : Constant
Bit rate : 56.0 Kbps
Channel(s) : 2 channels
Sampling rate : 44.1 KHz
Compression mode : Lossy
Stream size : 34.1 MiB (12%)
Alignment : Aligned on interleaves
Interleave, duration : 26 ms (0.65 video frame)
Interleave, preload duration : 78 ms
Writing library : LAME3.99.1

Скриншот c названием фильма

Скриншоты





Последний раз редактировалось: Erzya (2017-03-06 20:14), всего редактировалось 1 раз

Создавать темы 06-Мар-2017 09:51

[Профиль]  [ЛС] 

Топик был перенесен из форума Зарубежное кино в форум Видео для мобильных устройств
ruhal

Создавать темы 06-Мар-2017 20:15

 
Показать сообщения:    
Ответить на тему

Текущее время: 13-Дек 23:56

Часовой пояс: UTC + 5



Вы не можете начинать темы
Вы не можете отвечать на сообщения
Вы не можете редактировать свои сообщения
Вы не можете удалять свои сообщения
Вы не можете голосовать в опросах
Вы не можете прикреплять файлы к сообщениям
Вы не можете скачивать файлы