Великий гипнотизёр / The Great Hypnotist (Лэсте Чэнь) [2014, триллер, драма, детектив, DVDRip] [DoramaStar]

Ответить на тему
 

big boss ®

Стаж: 9 месяцев 17 дней

Сообщений: 219

Симпатии: 84

Великий гипнотизёр / The Great Hypnotist
-Год выпуска: 2014
Страна: Китай
Жанр: триллер, драма, детектив
Продолжительность: 01:41:29-Перевод:Любительский (одноголосный,закадровый) [DoramaStar]
Cубтитры: нет-Режиссер: Лэсте Чэнь-В ролях: Джин Ху, Жонг Люй, Карен Мок, Яоцин Ван, Сюй Чжэн-Описание: История об известном психологе с блестящей карьерой. Однажды он сталкивается с проблемным пациентом, встречи с которым даются ему непросто...-Качество видео: DVDRip
Формат видео: AVI-Видео: Xvid 720x304 23.976fps 1628kbps
Аудио: MP3 44100Hz stereo 128kbps 2 channels- - -

MediaInfo

General
Complete name : D:\загрузки\The.Great.Hypnotist.avi
Format : AVI
Format/Info : Audio Video Interleave
File size : 1.25 GiB
Duration : 1h 41mn
Overall bit rate : 1 766 Kbps
Video
ID : 0
Format : MPEG-4 Visual
Format profile : Advanced [email protected]
Format settings, BVOP : 1
Format settings, QPel : No
Format settings, GMC : No warppoints
Format settings, Matrix : Default (MPEG)
Codec ID : XVID
Codec ID/Hint : XviD
Duration : 1h 41mn
Bit rate : 1 629 Kbps
Width : 720 pixels
Height : 304 pixels
Display aspect ratio : 2.35:1
Frame rate : 23.976 (23976/1000) fps
Color space : YUV
Chroma subsampling : 4:2:0
Bit depth : 8 bits
Scan type : Progressive
Compression mode : Lossy
Bits/(Pixel*Frame) : 0.310
Stream size : 1.15 GiB (92%)
Writing library : XviD 64
Audio
ID : 1
Format : MPEG Audio
Format version : Version 1
Format profile : Layer 3
Mode : Joint stereo
Mode extension : MS Stereo
Codec ID : 55
Codec ID/Hint : MP3
Duration : 1h 41mn
Bit rate mode : Constant
Bit rate : 128 Kbps
Channel(s) : 2 channels
Sampling rate : 44.1 KHz
Compression mode : Lossy
Stream size : 92.9 MiB (7%)
Alignment : Split accross interleaves
Interleave, duration : 42 ms (1.00 video frame)
Interleave, preload duration : 500 ms
Writing library : LAME3.90.
Encoding settings : -m j -V 4 -q 5 -lowpass 15.5 -b 128

Создавать темы 03-Апр-2017 16:05

[Профиль]  [ЛС] 

Топик был перенесен из форума Фильмы за 2014 в форум Азиатские фильмы
ruhal

Создавать темы 03-Апр-2017 19:58

 
Показать сообщения:    
Ответить на тему

Текущее время: 18-Окт 23:28

Часовой пояс: UTC + 5



Вы не можете начинать темы
Вы не можете отвечать на сообщения
Вы не можете редактировать свои сообщения
Вы не можете удалять свои сообщения
Вы не можете голосовать в опросах
Вы не можете прикреплять файлы к сообщениям
Вы не можете скачивать файлы