Бриллиантовый картель / Diamond Cartel (Саламат Мухаммед-Али) [2017, Казахстан, боевик, приключения, WEB-DLRip] [Синема УС]

Ответить на тему
 

ruhal ®

Стаж: 2 года 8 месяцев

Сообщений: 1181

Симпатии: 1836

- -Бриллиантовый картель / Diamond Cartel-
Страна: Казахстан
Жанр: боевик, приключения
Год выпуска: 2017
Продолжительность: 01:41:27-Перевод: Любительский (многоголосый закадровый) [Синема УС]
Cубтитры: нет-Режиссер: Саламат Мухаммед-Али-В ролях: Майкл Мэдсен, Кэри-Хироюки Тагава, Дон «Дракон» Уилсон, Боло Йен, Арманд Ассанте,
Питер О’Тул, Оливье Грюнер, Том ’Тайни’ Листер мл.-Описание: Харизматичный и безжалостный Мусса покупает в Гонконге у босса местных триад
легендарный алмаз - Звезду Востока. Но камень не успевает попасть в руки нового хозяина.
Его наёмники Алия и Руслан, в прошлом - любовники, похищают Звезду и пытаются сбежать с ней из страны.-Качество видео: WEB-DLRip
Формат видео: AVI
Видео: Xvid 720x304 23.976fps 1663kbps
Аудио: Dolby AC3 48000Hz stereo 384kbps
-

MediaInfo

General
Complete name : E:\Films\Diamond.Cartel.2017.P.WEB-DLRip.avi
Format : AVI
Format/Info : Audio Video Interleave
File size : 1.46 GiB
Duration : 1h 41mn
Overall bit rate : 2 057 Kbps
Writing application : VirtualDubMod 1.5.10.2 (build 2540/release)
Writing library : VirtualDubMod build 2540/release
Video
ID : 0
Format : MPEG-4 Visual
Format profile : Advanced [email protected]
Format settings, BVOP : 2
Format settings, QPel : No
Format settings, GMC : No warppoints
Format settings, Matrix : Default (MPEG)
Codec ID : XVID
Codec ID/Hint : XviD
Duration : 1h 41mn
Bit rate : 1 663 Kbps
Width : 720 pixels
Height : 304 pixels
Display aspect ratio : 2.35:1
Frame rate : 23.976 fps
Color space : YUV
Chroma subsampling : 4:2:0
Bit depth : 8 bits
Scan type : Progressive
Compression mode : Lossy
Bits/(Pixel*Frame) : 0.317
Stream size : 1.18 GiB (81%)
Writing library : XviD 1.2.1 (UTC 2008-12-04)
Audio
ID : 1
Format : AC-3
Format/Info : Audio Coding 3
Mode extension : CM (complete main)
Format settings, Endianness : Big
Codec ID : 2000
Duration : 1h 41mn
Bit rate mode : Constant
Bit rate : 384 Kbps
Channel(s) : 2 channels
Channel positions : Front: L R
Sampling rate : 48.0 KHz
Bit depth : 16 bits
Compression mode : Lossy
Stream size : 279 MiB (19%)
Alignment : Split accross interleaves
Interleave, duration : 42 ms (1.00 video frame)
Interleave, preload duration : 500 ms

Создавать темы 12-Апр-2017 18:15

[Профиль]  [ЛС] 
Показать сообщения:    
Ответить на тему

Текущее время: 13-Дек 00:59

Часовой пояс: UTC + 5



Вы не можете начинать темы
Вы не можете отвечать на сообщения
Вы не можете редактировать свои сообщения
Вы не можете удалять свои сообщения
Вы не можете голосовать в опросах
Вы не можете прикреплять файлы к сообщениям
Вы не можете скачивать файлы