Секретный агент / Unlocked (Майкл Аптед) [2017, боевик / триллер, CAMRip] (Dub)

Ответить на тему
 

Админ ®

Стаж: 8 лет 11 месяцев

Сообщений: 290

Симпатии: 844

Секретный агент / Unlocked
-Год выпуска: 2017
Страна: Великобритания
Жанр: боевик / триллер
Продолжительность: 01:32:14-Перевод: [sh]Дублированный[/sh]
Cубтитры: нет-Режиссер: Майкл Аптед-В ролях: Нуми Рапас, Орландо Блум, Джон Малкович, Майкл Дуглас, Тони Коллетт-Описание: Главная героиня фильма – агент ЦРУ Элис Рэйнсин. Выполняя задание в Лондоне, она понимает, что ее подставили и теперь террористам известна секретная информация. Над английской столицей нависла угроза биологической атаки. Репутация Элис весит на волоске и ей просто необходимо исправить свою ошибку. Сделать это будет не просто, ведь теперь не понятно кому можно доверять, кто друг, а кто враг.-Качество видео: CAMRip
Формат видео: AVI-Видео: Xvid 720x336 30fps 1716kbps
Аудио: Dolby AC3 48000Hz stereo 384kbps- - -

MediaInfo

General
Complete name : D:\загрузки\SeKretniy.Agent.2O17.D.CAMRip.14OOMB_KOSHARA.avi
Format : AVI
Format/Info : Audio Video Interleave
File size : 1.36 GiB
Duration : 1 h 32 min
Overall bit rate : 2 112 kb/s
Writing application : VirtualDubMod 1.5.10.2 (build 2540/release)
Writing library : VirtualDubMod build 2540/release
Video
ID : 0
Format : MPEG-4 Visual
Format profile : Advanced [email protected]
Format settings, BVOP : 2
Format settings, QPel : No
Format settings, GMC : No warppoints
Format settings, Matrix : Default (MPEG)
Codec ID : XVID
Codec ID/Hint : XviD
Duration : 1 h 32 min
Bit rate : 1 716 kb/s
Width : 720 pixels
Height : 336 pixels
Display aspect ratio : 2.143
Frame rate : 30.000 FPS
Color space : YUV
Chroma subsampling : 4:2:0
Bit depth : 8 bits
Scan type : Progressive
Compression mode : Lossy
Bits/(Pixel*Frame) : 0.237
Stream size : 1.11 GiB (81%)
Writing library : XviD 1.2.1 (UTC 2008-12-04)
Audio
ID : 1
Format : AC-3
Format/Info : Audio Coding 3
Format settings, Endianness : Big
Codec ID : 2000
Duration : 1 h 32 min
Bit rate mode : Constant
Bit rate : 384 kb/s
Channel(s) : 2 channels
Channel positions : Front: L R
Sampling rate : 48.0 kHz
Frame rate : 31.250 FPS (1536 spf)
Bit depth : 16 bits
Compression mode : Lossy
Stream size : 253 MiB (18%)
Alignment : Split accross interleaves
Interleave, duration : 33 ms (1.00 video frame)
Interleave, preload duration : 500 ms
Service kind : Complete Main

Создавать темы 02-Май-2017 16:14

[Профиль]  [ЛС] 
Показать сообщения:    
Ответить на тему

Текущее время: 15-Дек 20:50

Часовой пояс: UTC + 5



Вы не можете начинать темы
Вы не можете отвечать на сообщения
Вы не можете редактировать свои сообщения
Вы не можете удалять свои сообщения
Вы не можете голосовать в опросах
Вы не можете прикреплять файлы к сообщениям
Вы не можете скачивать файлы