Хорас и Пит (мини-сериал) / Horace and Pete WEBRip / Сезон: 1 / Серии: 1-10 из 10 (Луис С.К) [2016, драма, комедия, WEB-DLRip] (MVO)

Ответить на тему
 

Hayotjon1988 ®

Стаж: 8 месяцев 13 дней

Сообщений: 24

Симпатии: 11

Хорас и Пит (мини-сериал) / Horace and Pete WEBRip
Год выпуска: 2016
Страна: США
Жанр: драма, комедия
Продолжительность: 00:43:50
Перевод: Профессиональный многоголосый закадровый
Русские субтитры: нет
Режиссёр: Луис С.К
В ролях: Луис С.К., Стив Бушеми, Иди Фалько, Стивен Райт, Курт Мецгер, Алан Алда, Джессика Лэнг
Описание: Cериал о Нью-Йоркском пабе, которым уже сто лет владеют поколения Хорасов и Питов.
Качество: WEB-DLRip
Формат: MP4
Видео кодек: AVC
Аудио кодек: AAC
Видео: AVC, 640x360, 25.000 fps, 900 Kbps, 0.156
Аудио: AAC, 44.1 KHz, 2 channels, 1 000 kbps
Субтитры: отсуствуют

MediaInfo

General
Complete name : D:\Kino\Хорас и Пит\97643-khoras-i-pit-1-sezon-1-seriya-episode-1.mp4
Format : MPEG-4
Format profile : Base Media
Codec ID : isom
File size : 555 MiB
Duration : 1h 7mn
Overall bit rate mode : Variable
Overall bit rate : 1 145 Kbps
Movie name : allmovies.uz
Writing application : Lavf56.25.101
Video
ID : 1
Format : AVC
Format/Info : Advanced Video Codec
Format profile : [email protected]
Format settings, CABAC : Yes
Format settings, ReFrames : 4 frames
Codec ID : avc1
Codec ID/Info : Advanced Video Coding
Duration : 1h 7mn
Bit rate : 900 Kbps
Width : 640 pixels
Height : 360 pixels
Display aspect ratio : 16:9
Frame rate mode : Constant
Frame rate : 25.000 fps
Color space : YUV
Chroma subsampling : 4:2:0
Bit depth : 8 bits
Scan type : Progressive
Bits/(Pixel*Frame) : 0.156
Stream size : 426 MiB (77%)
Writing library : x264 core 146
Encoding settings : cabac=1 / ref=1 / deblock=1:0:0 / analyse=0x3:0x113 / me=hex / subme=2 / psy=1 / psy_rd=1.00:0.00 / mixed_ref=0 / me_range=16 / chroma_me=1 / trellis=0 / 8x8dct=1 / cqm=0 / deadzone=21,11 / fast_pskip=1 / chroma_qp_offset=0 / threads=24 / lookahead_threads=2 / sliced_threads=0 / nr=0 / decimate=1 / interlaced=0 / bluray_compat=0 / constrained_intra=0 / bframes=3 / b_pyramid=2 / b_adapt=1 / b_bias=0 / direct=1 / weightb=1 / open_gop=0 / weightp=1 / keyint=50 / keyint_min=26 / scenecut=40 / intra_refresh=0 / rc_lookahead=10 / rc=abr / mbtree=1 / bitrate=900 / ratetol=1.0 / qcomp=0.60 / qpmin=0 / qpmax=69 / qpstep=4 / vbv_maxrate=1000 / vbv_bufsize=1000 / nal_hrd=none / filler=0 / ip_ratio=1.40 / aq=1:1.00
Audio #1
ID : 2
Format : AAC
Format/Info : Advanced Audio Codec
Format profile : LC
Codec ID : 40
Duration : 1h 7mn
Bit rate mode : Variable
Bit rate : 128 Kbps
Maximum bit rate : 1 000 Kbps
Channel(s) : 2 channels
Channel positions : Front: L R
Sampling rate : 44.1 KHz
Compression mode : Lossy
Stream size : 62.2 MiB (11%)
Audio #2
ID : 3
Format : AAC
Format/Info : Advanced Audio Codec
Format profile : LC
Codec ID : 40
Duration : 1h 7mn
Bit rate mode : Variable
Bit rate : 128 Kbps
Maximum bit rate : 1 000 Kbps
Channel(s) : 2 channels
Channel positions : Front: L R
Sampling rate : 44.1 KHz
Compression mode : Lossy
Stream size : 61.9 MiB (11%)
General
Complete name : D:\Kino\Хорас и Пит\97637-khoras-i-pit-1-sezon-2-seriya-episode-2.mp4
Format : MPEG-4
Format profile : Base Media
Codec ID : isom
File size : 415 MiB
Duration : 50mn 44s
Overall bit rate mode : Variable
Overall bit rate : 1 145 Kbps
Movie name : allmovies.uz
Writing application : Lavf56.25.101
Video
ID : 1
Format : AVC
Format/Info : Advanced Video Codec
Format profile : [email protected]
Format settings, CABAC : Yes
Format settings, ReFrames : 4 frames
Codec ID : avc1
Codec ID/Info : Advanced Video Coding
Duration : 50mn 44s
Bit rate : 900 Kbps
Width : 640 pixels
Height : 360 pixels
Display aspect ratio : 16:9
Frame rate mode : Constant
Frame rate : 25.000 fps
Color space : YUV
Chroma subsampling : 4:2:0
Bit depth : 8 bits
Scan type : Progressive
Bits/(Pixel*Frame) : 0.156
Stream size : 319 MiB (77%)
Writing library : x264 core 146
Encoding settings : cabac=1 / ref=1 / deblock=1:0:0 / analyse=0x3:0x113 / me=hex / subme=2 / psy=1 / psy_rd=1.00:0.00 / mixed_ref=0 / me_range=16 / chroma_me=1 / trellis=0 / 8x8dct=1 / cqm=0 / deadzone=21,11 / fast_pskip=1 / chroma_qp_offset=0 / threads=6 / lookahead_threads=2 / sliced_threads=0 / nr=0 / decimate=1 / interlaced=0 / bluray_compat=0 / constrained_intra=0 / bframes=3 / b_pyramid=2 / b_adapt=1 / b_bias=0 / direct=1 / weightb=1 / open_gop=0 / weightp=1 / keyint=50 / keyint_min=26 / scenecut=40 / intra_refresh=0 / rc_lookahead=10 / rc=abr / mbtree=1 / bitrate=900 / ratetol=1.0 / qcomp=0.60 / qpmin=0 / qpmax=69 / qpstep=4 / vbv_maxrate=1000 / vbv_bufsize=1000 / nal_hrd=none / filler=0 / ip_ratio=1.40 / aq=1:1.00
Audio #1
ID : 2
Format : AAC
Format/Info : Advanced Audio Codec
Format profile : LC
Codec ID : 40
Duration : 50mn 44s
Duration_LastFrame : -11ms
Bit rate mode : Variable
Bit rate : 129 Kbps
Maximum bit rate : 1 000 Kbps
Channel(s) : 2 channels
Channel positions : Front: L R
Sampling rate : 48.0 KHz
Compression mode : Lossy
Stream size : 46.6 MiB (11%)
Audio #2
ID : 3
Format : AAC
Format/Info : Advanced Audio Codec
Format profile : LC
Codec ID : 40
Duration : 50mn 44s
Duration_LastFrame : -13ms
Bit rate mode : Variable
Bit rate : 128 Kbps
Maximum bit rate : 1 000 Kbps
Channel(s) : 2 channels
Channel positions : Front: L R
Sampling rate : 48.0 KHz
Compression mode : Lossy
Stream size : 46.3 MiB (11%)
General
Complete name : D:\Kino\Хорас и Пит\97638-khoras-i-pit-1-sezon-3-seriya-episode-3.mp4
Format : MPEG-4
Format profile : Base Media
Codec ID : isom
File size : 360 MiB
Duration : 43mn 47s
Overall bit rate mode : Variable
Overall bit rate : 1 149 Kbps
Movie name : allmovies.uz
Writing application : Lavf56.25.101
Video
ID : 1
Format : AVC
Format/Info : Advanced Video Codec
Format profile : [email protected]
Format settings, CABAC : Yes
Format settings, ReFrames : 4 frames
Codec ID : avc1
Codec ID/Info : Advanced Video Coding
Duration : 43mn 47s
Bit rate : 900 Kbps
Width : 640 pixels
Height : 360 pixels
Display aspect ratio : 16:9
Frame rate mode : Constant
Frame rate : 25.000 fps
Color space : YUV
Chroma subsampling : 4:2:0
Bit depth : 8 bits
Scan type : Progressive
Bits/(Pixel*Frame) : 0.156
Stream size : 277 MiB (77%)
Writing library : x264 core 146
Encoding settings : cabac=1 / ref=1 / deblock=1:0:0 / analyse=0x3:0x113 / me=hex / subme=2 / psy=1 / psy_rd=1.00:0.00 / mixed_ref=0 / me_range=16 / chroma_me=1 / trellis=0 / 8x8dct=1 / cqm=0 / deadzone=21,11 / fast_pskip=1 / chroma_qp_offset=0 / threads=24 / lookahead_threads=2 / sliced_threads=0 / nr=0 / decimate=1 / interlaced=0 / bluray_compat=0 / constrained_intra=0 / bframes=3 / b_pyramid=2 / b_adapt=1 / b_bias=0 / direct=1 / weightb=1 / open_gop=0 / weightp=1 / keyint=50 / keyint_min=26 / scenecut=40 / intra_refresh=0 / rc_lookahead=10 / rc=abr / mbtree=1 / bitrate=900 / ratetol=1.0 / qcomp=0.60 / qpmin=0 / qpmax=69 / qpstep=4 / vbv_maxrate=1000 / vbv_bufsize=1000 / nal_hrd=none / filler=0 / ip_ratio=1.40 / aq=1:1.00
Audio #1
ID : 2
Format : AAC
Format/Info : Advanced Audio Codec
Format profile : LC
Codec ID : 40
Duration : 43mn 47s
Bit rate mode : Variable
Bit rate : 129 Kbps
Maximum bit rate : 1 000 Kbps
Channel(s) : 2 channels
Channel positions : Front: L R
Sampling rate : 48.0 KHz
Compression mode : Lossy
Stream size : 40.2 MiB (11%)
Audio #2
ID : 3
Format : AAC
Format/Info : Advanced Audio Codec
Format profile : LC
Codec ID : 40
Duration : 43mn 47s
Duration_LastFrame : -19ms
Bit rate mode : Variable
Bit rate : 128 Kbps
Maximum bit rate : 1 000 Kbps
Channel(s) : 2 channels
Channel positions : Front: L R
Sampling rate : 48.0 KHz
Compression mode : Lossy
Stream size : 40.2 MiB (11%)
General
Complete name : D:\Kino\Хорас и Пит\97639-khoras-i-pit-1-sezon-4-seriya-episode-4.mp4
Format : MPEG-4
Format profile : Base Media
Codec ID : isom
File size : 216 MiB
Duration : 30mn 23s
Overall bit rate mode : Variable
Overall bit rate : 991 Kbps
Movie name : allmovies.uz
Writing application : Lavf56.25.101
Video
ID : 1
Format : AVC
Format/Info : Advanced Video Codec
Format profile : [email protected]
Format settings, CABAC : Yes
Format settings, ReFrames : 4 frames
Codec ID : avc1
Codec ID/Info : Advanced Video Coding
Duration : 30mn 23s
Bit rate : 900 Kbps
Width : 720 pixels
Height : 400 pixels
Display aspect ratio : 16:9
Frame rate mode : Constant
Frame rate : 25.000 fps
Color space : YUV
Chroma subsampling : 4:2:0
Bit depth : 8 bits
Scan type : Progressive
Bits/(Pixel*Frame) : 0.125
Stream size : 186 MiB (86%)
Writing library : x264 core 146
Encoding settings : cabac=1 / ref=1 / deblock=1:0:0 / analyse=0x3:0x113 / me=hex / subme=2 / psy=1 / psy_rd=1.00:0.00 / mixed_ref=0 / me_range=16 / chroma_me=1 / trellis=0 / 8x8dct=1 / cqm=0 / deadzone=21,11 / fast_pskip=1 / chroma_qp_offset=0 / threads=24 / lookahead_threads=3 / sliced_threads=0 / nr=0 / decimate=1 / interlaced=0 / bluray_compat=0 / constrained_intra=0 / bframes=3 / b_pyramid=2 / b_adapt=1 / b_bias=0 / direct=1 / weightb=1 / open_gop=0 / weightp=1 / keyint=50 / keyint_min=26 / scenecut=40 / intra_refresh=0 / rc_lookahead=10 / rc=abr / mbtree=1 / bitrate=900 / ratetol=1.0 / qcomp=0.60 / qpmin=0 / qpmax=69 / qpstep=4 / vbv_maxrate=1000 / vbv_bufsize=1000 / nal_hrd=none / filler=0 / ip_ratio=1.40 / aq=1:1.00
Audio
ID : 2
Format : AAC
Format/Info : Advanced Audio Codec
Format profile : LC
Codec ID : 40
Duration : 30mn 23s
Bit rate mode : Variable
Bit rate : 129 Kbps
Maximum bit rate : 1 000 Kbps
Channel(s) : 2 channels
Channel positions : Front: L R
Sampling rate : 48.0 KHz
Compression mode : Lossy
Stream size : 28.0 MiB (13%)
General
Complete name : D:\Kino\Хорас и Пит\97640-khoras-i-pit-1-sezon-5-seriya-episode-5.mp4
Format : MPEG-4
Format profile : Base Media
Codec ID : isom
File size : 236 MiB
Duration : 33mn 16s
Overall bit rate mode : Variable
Overall bit rate : 992 Kbps
Movie name : allmovies.uz
Writing application : Lavf56.25.101
Video
ID : 1
Format : AVC
Format/Info : Advanced Video Codec
Format profile : [email protected]
Format settings, CABAC : Yes
Format settings, ReFrames : 4 frames
Codec ID : avc1
Codec ID/Info : Advanced Video Coding
Duration : 33mn 16s
Bit rate : 900 Kbps
Width : 720 pixels
Height : 400 pixels
Display aspect ratio : 16:9
Frame rate mode : Constant
Frame rate : 25.000 fps
Color space : YUV
Chroma subsampling : 4:2:0
Bit depth : 8 bits
Scan type : Progressive
Bits/(Pixel*Frame) : 0.125
Stream size : 204 MiB (86%)
Writing library : x264 core 146
Encoding settings : cabac=1 / ref=1 / deblock=1:0:0 / analyse=0x3:0x113 / me=hex / subme=2 / psy=1 / psy_rd=1.00:0.00 / mixed_ref=0 / me_range=16 / chroma_me=1 / trellis=0 / 8x8dct=1 / cqm=0 / deadzone=21,11 / fast_pskip=1 / chroma_qp_offset=0 / threads=24 / lookahead_threads=3 / sliced_threads=0 / nr=0 / decimate=1 / interlaced=0 / bluray_compat=0 / constrained_intra=0 / bframes=3 / b_pyramid=2 / b_adapt=1 / b_bias=0 / direct=1 / weightb=1 / open_gop=0 / weightp=1 / keyint=50 / keyint_min=26 / scenecut=40 / intra_refresh=0 / rc_lookahead=10 / rc=abr / mbtree=1 / bitrate=900 / ratetol=1.0 / qcomp=0.60 / qpmin=0 / qpmax=69 / qpstep=4 / vbv_maxrate=1000 / vbv_bufsize=1000 / nal_hrd=none / filler=0 / ip_ratio=1.40 / aq=1:1.00
Audio
ID : 2
Format : AAC
Format/Info : Advanced Audio Codec
Format profile : LC
Codec ID : 40
Duration : 33mn 16s
Duration_LastFrame : -11ms
Bit rate mode : Variable
Bit rate : 128 Kbps
Maximum bit rate : 1 000 Kbps
Channel(s) : 2 channels
Channel positions : Front: L R
Sampling rate : 48.0 KHz
Compression mode : Lossy
Stream size : 30.6 MiB (13%)
General
Complete name : D:\Kino\Хорас и Пит\97641-khoras-i-pit-1-sezon-6-seriya-episode-6.mp4
Format : MPEG-4
Format profile : Base Media
Codec ID : isom
File size : 274 MiB
Duration : 37mn 2s
Overall bit rate mode : Variable
Overall bit rate : 1 033 Kbps
Movie name : allmovies.uz
Writing application : Lavf56.25.101
Video
ID : 1
Format : AVC
Format/Info : Advanced Video Codec
Format profile : [email protected]
Format settings, CABAC : Yes
Format settings, ReFrames : 4 frames
Codec ID : avc1
Codec ID/Info : Advanced Video Coding
Duration : 37mn 2s
Bit rate : 900 Kbps
Width : 720 pixels
Height : 400 pixels
Display aspect ratio : 16:9
Frame rate mode : Constant
Frame rate : 25.000 fps
Color space : YUV
Chroma subsampling : 4:2:0
Bit depth : 8 bits
Scan type : Progressive
Bits/(Pixel*Frame) : 0.125
Stream size : 238 MiB (87%)
Writing library : x264 core 146
Encoding settings : cabac=1 / ref=1 / deblock=1:0:0 / analyse=0x3:0x113 / me=hex / subme=2 / psy=1 / psy_rd=1.00:0.00 / mixed_ref=0 / me_range=16 / chroma_me=1 / trellis=0 / 8x8dct=1 / cqm=0 / deadzone=21,11 / fast_pskip=1 / chroma_qp_offset=0 / threads=6 / lookahead_threads=2 / sliced_threads=0 / nr=0 / decimate=1 / interlaced=0 / bluray_compat=0 / constrained_intra=0 / bframes=3 / b_pyramid=2 / b_adapt=1 / b_bias=0 / direct=1 / weightb=1 / open_gop=0 / weightp=1 / keyint=50 / keyint_min=26 / scenecut=40 / intra_refresh=0 / rc_lookahead=10 / rc=abr / mbtree=1 / bitrate=900 / ratetol=1.0 / qcomp=0.60 / qpmin=0 / qpmax=69 / qpstep=4 / vbv_maxrate=1000 / vbv_bufsize=1000 / nal_hrd=none / filler=0 / ip_ratio=1.40 / aq=1:1.00
Audio
ID : 2
Format : AAC
Format/Info : Advanced Audio Codec
Format profile : LC
Codec ID : 40
Duration : 37mn 2s
Duration_LastFrame : -11ms
Bit rate mode : Variable
Bit rate : 128 Kbps
Maximum bit rate : 1 000 Kbps
Channel(s) : 2 channels
Channel positions : Front: L R
Sampling rate : 48.0 KHz
Compression mode : Lossy
Stream size : 34.0 MiB (12%)
General
Complete name : D:\Kino\Хорас и Пит\97642-khoras-i-pit-1-sezon-7-seriya-episode-7.mp4
Format : MPEG-4
Format profile : Base Media
Codec ID : isom
File size : 412 MiB
Duration : 50mn 32s
Overall bit rate mode : Variable
Overall bit rate : 1 140 Kbps
Movie name : allmovies.uz
Writing application : Lavf56.25.101
Video
ID : 1
Format : AVC
Format/Info : Advanced Video Codec
Format profile : [email protected]
Format settings, CABAC : Yes
Format settings, ReFrames : 4 frames
Codec ID : avc1
Codec ID/Info : Advanced Video Coding
Duration : 50mn 32s
Bit rate : 900 Kbps
Width : 640 pixels
Height : 360 pixels
Display aspect ratio : 16:9
Frame rate mode : Constant
Frame rate : 25.000 fps
Color space : YUV
Chroma subsampling : 4:2:0
Bit depth : 8 bits
Scan type : Progressive
Bits/(Pixel*Frame) : 0.156
Stream size : 316 MiB (77%)
Writing library : x264 core 146
Encoding settings : cabac=1 / ref=1 / deblock=1:0:0 / analyse=0x3:0x113 / me=hex / subme=2 / psy=1 / psy_rd=1.00:0.00 / mixed_ref=0 / me_range=16 / chroma_me=1 / trellis=0 / 8x8dct=1 / cqm=0 / deadzone=21,11 / fast_pskip=1 / chroma_qp_offset=0 / threads=24 / lookahead_threads=2 / sliced_threads=0 / nr=0 / decimate=1 / interlaced=0 / bluray_compat=0 / constrained_intra=0 / bframes=3 / b_pyramid=2 / b_adapt=1 / b_bias=0 / direct=1 / weightb=1 / open_gop=0 / weightp=1 / keyint=50 / keyint_min=26 / scenecut=40 / intra_refresh=0 / rc_lookahead=10 / rc=abr / mbtree=1 / bitrate=900 / ratetol=1.0 / qcomp=0.60 / qpmin=0 / qpmax=69 / qpstep=4 / vbv_maxrate=1000 / vbv_bufsize=1000 / nal_hrd=none / filler=0 / ip_ratio=1.40 / aq=1:1.00
Audio #1
ID : 2
Format : AAC
Format/Info : Advanced Audio Codec
Format profile : LC
Codec ID : 40
Duration : 50mn 32s
Duration_LastFrame : -11ms
Bit rate mode : Variable
Bit rate : 128 Kbps
Maximum bit rate : 1 000 Kbps
Channel(s) : 2 channels
Channel positions : Front: L R
Sampling rate : 48.0 KHz
Compression mode : Lossy
Stream size : 46.4 MiB (11%)
Audio #2
ID : 3
Format : AAC
Format/Info : Advanced Audio Codec
Format profile : LC
Codec ID : 40
Duration : 50mn 32s
Duration_LastFrame : -13ms
Bit rate mode : Variable
Bit rate : 128 Kbps
Maximum bit rate : 1 000 Kbps
Channel(s) : 2 channels
Channel positions : Front: L R
Sampling rate : 48.0 KHz
Compression mode : Lossy
Stream size : 46.3 MiB (11%)
General
Complete name : D:\Kino\Хорас и Пит\97645-khoras-i-pit-1-sezon-8-seriya-episode-8.mp4
Format : MPEG-4
Format profile : Base Media
Codec ID : isom
File size : 288 MiB
Duration : 35mn 8s
Overall bit rate mode : Variable
Overall bit rate : 1 144 Kbps
Movie name : allmovies.uz
Writing application : Lavf56.25.101
Video
ID : 1
Format : AVC
Format/Info : Advanced Video Codec
Format profile : [email protected]
Format settings, CABAC : Yes
Format settings, ReFrames : 4 frames
Codec ID : avc1
Codec ID/Info : Advanced Video Coding
Duration : 35mn 8s
Bit rate : 900 Kbps
Width : 640 pixels
Height : 360 pixels
Display aspect ratio : 16:9
Frame rate mode : Constant
Frame rate : 25.000 fps
Color space : YUV
Chroma subsampling : 4:2:0
Bit depth : 8 bits
Scan type : Progressive
Bits/(Pixel*Frame) : 0.156
Stream size : 221 MiB (77%)
Writing library : x264 core 146
Encoding settings : cabac=1 / ref=1 / deblock=1:0:0 / analyse=0x3:0x113 / me=hex / subme=2 / psy=1 / psy_rd=1.00:0.00 / mixed_ref=0 / me_range=16 / chroma_me=1 / trellis=0 / 8x8dct=1 / cqm=0 / deadzone=21,11 / fast_pskip=1 / chroma_qp_offset=0 / threads=24 / lookahead_threads=2 / sliced_threads=0 / nr=0 / decimate=1 / interlaced=0 / bluray_compat=0 / constrained_intra=0 / bframes=3 / b_pyramid=2 / b_adapt=1 / b_bias=0 / direct=1 / weightb=1 / open_gop=0 / weightp=1 / keyint=50 / keyint_min=26 / scenecut=40 / intra_refresh=0 / rc_lookahead=10 / rc=abr / mbtree=1 / bitrate=900 / ratetol=1.0 / qcomp=0.60 / qpmin=0 / qpmax=69 / qpstep=4 / vbv_maxrate=1000 / vbv_bufsize=1000 / nal_hrd=none / filler=0 / ip_ratio=1.40 / aq=1:1.00
Audio #1
ID : 2
Format : AAC
Format/Info : Advanced Audio Codec
Format profile : LC
Codec ID : 40
Duration : 35mn 8s
Bit rate mode : Variable
Bit rate : 129 Kbps
Maximum bit rate : 1 000 Kbps
Channel(s) : 2 channels
Channel positions : Front: L R
Sampling rate : 48.0 KHz
Compression mode : Lossy
Stream size : 32.3 MiB (11%)
Audio #2
ID : 3
Format : AAC
Format/Info : Advanced Audio Codec
Format profile : LC
Codec ID : 40
Duration : 35mn 8s
Duration_LastFrame : -3ms
Bit rate mode : Variable
Bit rate : 128 Kbps
Maximum bit rate : 1 000 Kbps
Channel(s) : 2 channels
Channel positions : Front: L R
Sampling rate : 48.0 KHz
Compression mode : Lossy
Stream size : 32.2 MiB (11%)
General
Complete name : D:\Kino\Хорас и Пит\97644-khoras-i-pit-1-sezon-9-seriya-episode-9.mp4
Format : MPEG-4
Format profile : Base Media
Codec ID : isom
File size : 258 MiB
Duration : 36mn 3s
Overall bit rate mode : Variable
Overall bit rate : 999 Kbps
Movie name : allmovies.uz
Writing application : Lavf56.25.101
Video
ID : 1
Format : AVC
Format/Info : Advanced Video Codec
Format profile : [email protected]
Format settings, CABAC : Yes
Format settings, ReFrames : 4 frames
Codec ID : avc1
Codec ID/Info : Advanced Video Coding
Duration : 36mn 3s
Bit rate : 900 Kbps
Width : 720 pixels
Height : 400 pixels
Display aspect ratio : 16:9
Frame rate mode : Constant
Frame rate : 25.000 fps
Color space : YUV
Chroma subsampling : 4:2:0
Bit depth : 8 bits
Scan type : Progressive
Bits/(Pixel*Frame) : 0.125
Stream size : 223 MiB (87%)
Writing library : x264 core 146
Encoding settings : cabac=1 / ref=1 / deblock=1:0:0 / analyse=0x3:0x113 / me=hex / subme=2 / psy=1 / psy_rd=1.00:0.00 / mixed_ref=0 / me_range=16 / chroma_me=1 / trellis=0 / 8x8dct=1 / cqm=0 / deadzone=21,11 / fast_pskip=1 / chroma_qp_offset=0 / threads=6 / lookahead_threads=2 / sliced_threads=0 / nr=0 / decimate=1 / interlaced=0 / bluray_compat=0 / constrained_intra=0 / bframes=3 / b_pyramid=2 / b_adapt=1 / b_bias=0 / direct=1 / weightb=1 / open_gop=0 / weightp=1 / keyint=50 / keyint_min=26 / scenecut=40 / intra_refresh=0 / rc_lookahead=10 / rc=abr / mbtree=1 / bitrate=900 / ratetol=1.0 / qcomp=0.60 / qpmin=0 / qpmax=69 / qpstep=4 / vbv_maxrate=1000 / vbv_bufsize=1000 / nal_hrd=none / filler=0 / ip_ratio=1.40 / aq=1:1.00
Audio
ID : 2
Format : AAC
Format/Info : Advanced Audio Codec
Format profile : LC
Codec ID : 40
Duration : 36mn 3s
Bit rate mode : Variable
Bit rate : 129 Kbps
Maximum bit rate : 1 000 Kbps
Channel(s) : 2 channels
Channel positions : Front: L R
Sampling rate : 48.0 KHz
Compression mode : Lossy
Stream size : 33.1 MiB (13%)
General
Complete name : D:\Kino\Хорас и Пит\97646-khoras-i-pit-1-sezon-10-seriya-episode-10.mp4
Format : MPEG-4
Format profile : Base Media
Codec ID : isom
File size : 392 MiB
Duration : 53mn 45s
Overall bit rate mode : Variable
Overall bit rate : 1 019 Kbps
Movie name : allmovies.uz
Writing application : Lavf56.25.101
Video
ID : 1
Format : AVC
Format/Info : Advanced Video Codec
Format profile : [email protected]
Format settings, CABAC : Yes
Format settings, ReFrames : 4 frames
Codec ID : avc1
Codec ID/Info : Advanced Video Coding
Duration : 53mn 45s
Bit rate : 900 Kbps
Width : 720 pixels
Height : 400 pixels
Display aspect ratio : 16:9
Frame rate mode : Constant
Frame rate : 25.000 fps
Color space : YUV
Chroma subsampling : 4:2:0
Bit depth : 8 bits
Scan type : Progressive
Bits/(Pixel*Frame) : 0.125
Stream size : 340 MiB (87%)
Writing library : x264 core 146
Encoding settings : cabac=1 / ref=1 / deblock=1:0:0 / analyse=0x3:0x113 / me=hex / subme=2 / psy=1 / psy_rd=1.00:0.00 / mixed_ref=0 / me_range=16 / chroma_me=1 / trellis=0 / 8x8dct=1 / cqm=0 / deadzone=21,11 / fast_pskip=1 / chroma_qp_offset=0 / threads=6 / lookahead_threads=2 / sliced_threads=0 / nr=0 / decimate=1 / interlaced=0 / bluray_compat=0 / constrained_intra=0 / bframes=3 / b_pyramid=2 / b_adapt=1 / b_bias=0 / direct=1 / weightb=1 / open_gop=0 / weightp=1 / keyint=50 / keyint_min=26 / scenecut=40 / intra_refresh=0 / rc_lookahead=10 / rc=abr / mbtree=1 / bitrate=900 / ratetol=1.0 / qcomp=0.60 / qpmin=0 / qpmax=69 / qpstep=4 / vbv_maxrate=1000 / vbv_bufsize=1000 / nal_hrd=none / filler=0 / ip_ratio=1.40 / aq=1:1.00
Audio
ID : 2
Format : AAC
Format/Info : Advanced Audio Codec
Format profile : LC
Codec ID : 40
Duration : 53mn 45s
Bit rate mode : Variable
Bit rate : 128 Kbps
Maximum bit rate : 1 000 Kbps
Channel(s) : 2 channels
Channel positions : Front: L R
Sampling rate : 48.0 KHz
Compression mode : Lossy
Stream size : 49.4 MiB (13%)

Скриншоты




Создавать темы 07-Май-2017 16:22

[Профиль]  [ЛС] 

evil-tashkenta

Стаж: 5 лет 11 месяцев

Сообщений: 17

Классный сериал!) Смотрю уже десятую серию

Создавать темы 07-Май-2017 19:25

[Профиль]  [ЛС] 
Показать сообщения:    
Ответить на тему

Текущее время: 14-Дек 00:01

Часовой пояс: UTC + 5



Вы не можете начинать темы
Вы не можете отвечать на сообщения
Вы не можете редактировать свои сообщения
Вы не можете удалять свои сообщения
Вы не можете голосовать в опросах
Вы не можете прикреплять файлы к сообщениям
Вы не можете скачивать файлы