Рик и Морти / Rick and Morty / Сезон: 3 / Серии: 1-1 (14) (Джастин Ройланд / Justin Roiland) [2017, Для взрослых, Комедия, Мультсериалы, Фантастика, WEB-DL 720p] VO (Сыендук)

Ответить на тему
 

yarik ®

Стаж: 4 года 10 месяцев

Сообщений: 225

Симпатии: 123

Рик и Морти / Rick and Morty Название: Рик и Морти
Оригинальное название: Rick and Morty
Год выхода: 2017
Сезон: 3
Серии: 1-1 (из 14)
Жанр: Для взрослых, Комедия, Мультсериалы, Фантастика
Страна: США
Продолжительность: 00:22:45
Перевод: Евгений Спицын / dirty.ru
Озвучка: Любительская (одноголосая, закадровая) - Сыендук
Русские субтитры: нет
Режиссер: Пит Мишелс, Джон Райс, Джастин Ройланд
В ролях: Джастин Ройланд, Спенсер Грэммер, Сара Чок, Крис Парнелл, Джесс Харнелл, Фил Хендри, Брэндон Джонсон, Эрик Бауза, Мелик Бергер, Дэна Карви
Описание: Рик и Морти - американский, научно-фантастический комедийно-приключенческий мультсериал. В центре внимания - неунывающая парочка, состоящая из внука-школьника и дедушки-ученого. Вместе они совершат много увлекательных путешествий и докажут существование невероятных явлений.
Качество: WEB-DL 720p
Формат: MKV
Видео: MPEG4 Video (H264) 1280x720 30.000fps 3 436 Kbps
Аудио: Dolby AC3 48000Hz stereo 192 Kbps [Russian, vo-sienduk]

Список серий

01. Рикшанк Рикдеменд / The Rickshank Rickdemption

MediaInfo

General
Unique ID                                : 209852512443614558643742847539439312174 (0x9DE01FAEDDE4F400913BE39D0D799D2E)
Complete name                            : /home/evgeniy/Видео/Рик и Морти/Сезон 3/s03e01.The.Rickshank.Rickdemption.mkv
Format                                   : Matroska
Format version                           : Version 4 / Version 2
File size                                : 437 MiB
Duration                                 : 22 min 46 s
Overall bit rate mode                    : Constant
Overall bit rate                         : 2 685 kb/s
Encoded date                             : UTC 2017-04-02 20:25:24
Writing application                      : mkvmerge v9.4.2 ('So High') 64bit
Writing library                          : libebml v1.3.4 + libmatroska v1.4.5
Video
ID                                       : 1
Format                                   : AVC
Format/Info                              : Advanced Video Codec
Format profile                           : [email protected]
Format settings, CABAC                   : Yes
Format settings, ReFrames                : 2 frames
Codec ID                                 : V_MPEG4/ISO/AVC
Duration                                 : 22 min 46 s
Bit rate mode                            : Constant
Bit rate                                 : 2 490 kb/s
Nominal bit rate                         : 3 436 kb/s
Width                                    : 1 280 pixels
Height                                   : 720 pixels
Display aspect ratio                     : 16:9
Frame rate mode                          : Variable
Frame rate                               : 30.000 FPS
Color space                              : YUV
Chroma subsampling                       : 4:2:0
Bit depth                                : 8 bits
Scan type                                : Progressive
Bits/(Pixel*Frame)                       : 0.090
Stream size                              : 406 MiB (93%)
Default                                  : Yes
Forced                                   : No
Audio
ID                                       : 2
Format                                   : AC-3
Format/Info                              : Audio Coding 3
Mode extension                           : CM (complete main)
Format settings, Endianness              : Big
Codec ID                                 : A_AC3
Duration                                 : 22 min 46 s
Bit rate mode                            : Constant
Bit rate                                 : 192 kb/s
Channel(s)                               : 2 channels
Channel positions                        : Front: L R
Sampling rate                            : 48.0 kHz
Frame rate                               : 31.250 FPS (1536 spf)
Bit depth                                : 16 bits
Compression mode                         : Lossy
Stream size                              : 31.3 MiB (7%)
Default                                  : Yes
Forced                                   : No

Скриншоты

Создавать темы 09-Июн-2017 03:11

[Профиль]  [ЛС] 

Rammstein

Стаж: 5 лет 5 месяцев

Сообщений: 274

Симпатии: 68

Шикарный мульт

Создавать темы 09-Июн-2017 15:23

[Профиль]  [ЛС] 

gold_man

Стаж: 8 лет 3 месяца

Сообщений: 162

Симпатии: 18

когда следующая серия будет ?????

Создавать темы 04-Июл-2017 21:30

[Профиль]  [ЛС] 

yarik ®

Стаж: 4 года 10 месяцев

Сообщений: 225

Симпатии: 123

gold_man, где-то в конце месяца или в августе

Создавать темы 05-Июл-2017 18:33

[Профиль]  [ЛС] 

gold_man

Стаж: 8 лет 3 месяца

Сообщений: 162

Симпатии: 18

995180gold_man, где-то в конце месяца или в августе
спасибо за ответ )

Создавать темы 07-Июл-2017 20:34

[Профиль]  [ЛС] 
Показать сообщения:    
Ответить на тему

Текущее время: 14-Дек 00:01

Часовой пояс: UTC + 5



Вы не можете начинать темы
Вы не можете отвечать на сообщения
Вы не можете редактировать свои сообщения
Вы не можете удалять свои сообщения
Вы не можете голосовать в опросах
Вы не можете прикреплять файлы к сообщениям
Вы не можете скачивать файлы