Туман / Мгла / The Mist / Сезон 1 / Серии 1-5 (10) (Адам Бернштейн) [2017, ужасы, драма, WEBRip] MVO (AlexFilm)

Ответить на тему
 

mp1988 ®

Стаж: 6 лет 10 месяцев

Сообщений: 607

Симпатии: 971

Туман / Мгла / The Mist

СТРАХ, ЧЕЛОВЕК, ПРИРОДА
Год выпуска: 2017
Страна: США
Жанр: Ужасы, драма
Продолжительность: ~00:40:00-Озвучание: Профессиональное, многоголосое, закадровое (AlexFilm)-Субтитры: нет
Режиссер: Адам Бернштейн, Гай Ферленд, Ричард Лэкстон-В ролях: Алисса Сазерленд, Исайя Уитлок мл., Билл Карр, Гас Бирни, Люк Косгров, Грег Ованессян, Дарси Линдсон, Александра Ордолис, Лола Флэнери и др.
Описание: Сериал по мотивам повести Стивенга Кинга "The Mist". В сериале нас ждут другие герои, но все тот же маленький городок в штате Мэн, где люди знают друг друга, шепчутся за спиной и тихо-мирно живут размеренной жизнью. Но всему этому суждено прерваться, когда на город опускается загадочный Туман.-Релиз: -Мгла (1 сезон) — Русский трейлер (2017)-Перевод: Константин Кривоногов
Монтаж и сведение звука: Михаил Шорыгин
Роли озвучивали:
  • Маргарита Корш
  • Екатерина Муравицкая
  • Роман Сопко
  • Кирилл Патрино
  • Станислав Черсков
  • Михаил Суслов
    Качество: WEBRip
    Формат: AVI
    Видео: 720x400 (16:9), 23.976 fps, XviD ~1420 kbps avg, 0.186 bit/pixel
    Аудио Rus: 48 kHz, MPEG Layer 3, 2 ch, ~128.00 kbps avg
    Аудио Eng: 48 kHz, MPEG Layer 3, 2 ch, ~128.00 kbps avg
    Присутствует реклама

    MediaInfo

    Формат : AVI
    Формат/Информация : Audio Video Interleave
    Размер файла : 533 Мбайт
    Продолжительность : 44 м. 31 с.
    Общий поток : 1673 Кбит/сек
    Название фильма : The Mist 1x01 @ AlexFilm
    Программа кодирования : VirtualDubMod 1.5.10.2 (build 2540/release)
    Библиотека кодирования : VirtualDubMod build 2540/release
    Видео
    Идентификатор : 0
    Формат : MPEG-4 Visual
    Профиль формата : Advanced [email protected]
    Параметр BVOP формата : Нет
    Параметр QPel формата : Нет
    Параметр GMC формата : Без точки перехода
    Параметр матрицы формата : Default (MPEG)
    Идентификатор кодека : XVID
    Идентификатор кодека/Подсказка : XviD
    Продолжительность : 44 м. 31 с.
    Битрейт : 1403 Кбит/сек
    Ширина : 720 пикселей
    Высота : 400 пикселей
    Соотношение сторон : 16:9
    Частота кадров : 23,976 (23976/1000) кадра/сек
    Цветовое пространство : YUV
    Субдискретизация насыщенности : 4:2:0
    Битовая глубина : 8 бит
    Тип развёртки : Прогрессивная
    Метод сжатия : С потерями
    Бит/(Пиксели*Кадры) : 0.203
    Размер потока : 447 Мбайт (84%)
    Библиотека кодирования : XviD 73
    Аудио #1
    Идентификатор : 1
    Формат : MPEG Audio
    Версия формата : Version 1
    Профиль формата : Layer 3
    Режим : Joint stereo
    Расширение режима : MS Stereo
    Идентификатор кодека : 55
    Идентификатор кодека/Подсказка : MP3
    Продолжительность : 44 м. 30 с.
    Вид битрейта : Постоянный
    Битрейт : 128 Кбит/сек
    Каналы : 2 канала
    Частота : 48,0 КГц
    Метод сжатия : С потерями
    Размер потока : 40,8 Мбайт (8%)
    Выравнивание : Соединение по промежуткам
    Продолжительность промежутка : 42 мс. (1,00 видеокадр)
    Время предзагрузки промежутка : 504 мс.
    Заголовок : Russian (AlexFilm)
    Библиотека кодирования : LAME3.99r
    Настройки программы : -m j -V 4 -q 3 -lowpass 18 -b 128
    Аудио #2
    Идентификатор : 2
    Формат : MPEG Audio
    Версия формата : Version 1
    Профиль формата : Layer 3
    Режим : Joint stereo
    Расширение режима : MS Stereo
    Идентификатор кодека : 55
    Идентификатор кодека/Подсказка : MP3
    Продолжительность : 44 м. 31 с.
    Вид битрейта : Постоянный
    Битрейт : 128 Кбит/сек
    Каналы : 2 канала
    Частота : 48,0 КГц
    Метод сжатия : С потерями
    Размер потока : 40,8 Мбайт (8%)
    Выравнивание : Соединение по промежуткам
    Продолжительность промежутка : 42 мс. (1,00 видеокадр)
    Время предзагрузки промежутка : 504 мс.
    Заголовок : English
    Библиотека кодирования : LAME3.90.3

    Скриншоты







    Раздача ведется путем добавления новых серий 〤

    Когда раздача ведётся путём добавления новых серий, при каждом добавлении создётся новый торрент. Чтобы начать докачку новой серии, пользователям необходимо сделать следующее:
    (1) остановить скачивание,
    (2) удалить старый торрент у себя из клиента (старые серии удалять не надо),
    (3) скачать новый торрент и запустить его у себя в клиенте вместо старого, при этом указать клиенту путь в старую папку, куда и должно происходить скачивание новых серий.
    Ваш клиент при этом должен произвести хеширование (проверку) старой папки (если не производит сам - помогите ему сделать это), и будет докачивать только те серии, которых у вас ещё нет. Старые серии при этом не удаляются, а продолжают раздаваться!
    Eсли вы уже удалили старые серии, то предотвратить повторную закачку старых серий можно, отжав галочку в соответсвующих местах при запуске нового торрента. По возможности, желательно не удалять старые серии как можно дольше, чтобы релизёр не столько продолжал раздавать старые серии, а смог сконцентрироваться на новых.


  • Последний раз редактировалось: mp1988 (2017-07-23 16:18), всего редактировалось 5 раз(а)

    Создавать темы 26-Июн-2017 09:29

    [Профиль]  [ЛС] 

    mp1988 ®

    Стаж: 6 лет 10 месяцев

    Сообщений: 607

    Симпатии: 971

    фильм классный был в 2007 году, посмотрим как сериал вышел . вот ссылка на фильм 2007 года http://tas-ix.me/viewtopic.php?t=117392

    Создавать темы 26-Июн-2017 14:35

    [Профиль]  [ЛС] 

    trojan

    Стаж: 4 года 10 месяцев

    Сообщений: 35

    Симпатии: 2

    ток, актеры все как на подбор, страшные шо смотреть не хочеться

    Создавать темы 26-Июн-2017 23:45

    [Профиль]  [ЛС] 

    Shuxratt

    Стаж: 6 лет 10 месяцев

    Сообщений: 76

    Симпатии: 2

    [url]ток, актеры все как на подбор, страшные шо смотреть не хочеться[/url]
    Точно сказано. Их. наверное по дешёвке подобрали! ag ac

    Создавать темы 28-Июн-2017 11:18

    [Профиль]  [ЛС] 

    shon86

    Стаж: 4 года 7 месяцев

    Сообщений: 159

    Симпатии: 10

    Без рекламы? Реклама есть, нужно об этом указывать в раздаче.

    Создавать темы 29-Июн-2017 20:41

    [Профиль]  [ЛС] 

    mp1988 ®

    Стаж: 6 лет 10 месяцев

    Сообщений: 607

    Симпатии: 971

    4 cерия

    Создавать темы 11-Июл-2017 19:38

    [Профиль]  [ЛС] 

    beeschunmo

    Стаж: 4 года

    Сообщений: 143

    Симпатии: 11

    где 6 и 7 серии?

    Создавать темы 08-Авг-2017 00:22

    [Профиль]  [ЛС] 

    LittleJohnny

    Стаж: 1 год 11 месяцев

    Сообщений: 23

    Симпатии: 1

    такая бредятина

    Создавать темы 11-Авг-2017 01:20

    [Профиль]  [ЛС] 
    Показать сообщения:    
    Ответить на тему

    Текущее время: 13-Дек 23:55

    Часовой пояс: UTC + 5



    Вы не можете начинать темы
    Вы не можете отвечать на сообщения
    Вы не можете редактировать свои сообщения
    Вы не можете удалять свои сообщения
    Вы не можете голосовать в опросах
    Вы не можете прикреплять файлы к сообщениям
    Вы не можете скачивать файлы