Преступление / Сезон: 1 Полный / Серии: 20 из 20 (Максим Василенко) [2017, Драма, детектив, криминал, SATRip]

Ответить на тему
 

ruhal ®

Стаж: 2 года 8 месяцев

Сообщений: 1181

Симпатии: 1836

-Преступление-
Год выпуска: 2017
Производство: ВайТ Медиа
Жанр: Драма, детектив, криминал
Продолжительность: ~ 00:45:00-Режиссёр: Максим Василенко-В ролях: Дарья Мороз, Павел Прилучный, Андрей Смоляков, Людмила Артемьева, Игорь Костолевский,
Алёна Хмельницкая, Владимир Юматов, Павел Трубинер, Валерия Шкирандо, Никита Сологалов, Евгений Коряковский,
Антонина Чижикова, Максим Дромашко, Марина Митрофанова, Алексей Коваль, Алексей Коряков, Александр Булатов,
Алла Малкова, Виктор Потапешкин, Владимир Малков, Алексей Юрченко-Описание: Расследование жестокого убийства молодой девушки оборачивается сложной психологической драмой,
поднимает вопросы человеческих ценностей и смыслов, волнующих каждого: верность и предательство, цинизм и
сострадание, месть и смирение. Детективная захватывающая интрига, в ходе развития которой подозрение падает на
каждого из главных героев, держит зрителя в постоянном напряжении до последнего кадра. Но один из основных вопросов,
который ставит фильм: удастся ли героям сохранить себя и остаться людьми?-Качество: SATRip
Формат: AVI
Видео кодек: XviD
Аудио кодек: MP3
Видео: Xvid 720x400 25fps 1837kbps
Аудио: MP3 48000Hz stereo 128kbps
-

MI

General
Complete name : E:\Films\Prestuplenie.SATRip\Prestuplenie.01.SATRip..avi
Format : AVI
Format/Info : Audio Video Interleave
File size : 617 MiB
Duration : 43mn 41s
Overall bit rate : 1 975 Kbps
Writing application : VirtualDubMod 1.5.10.3 | www.virtualdub-fr.org || (build 2550/release)
Writing library : VirtualDub build 29808/release
Video
ID : 0
Format : MPEG-4 Visual
Format profile : Advanced [email protected]
Format settings, BVOP : 2
Format settings, QPel : No
Format settings, GMC : No warppoints
Format settings, Matrix : Default (H.263)
Codec ID : XVID
Codec ID/Hint : XviD
Duration : 43mn 41s
Bit rate : 1 838 Kbps
Width : 720 pixels
Height : 400 pixels
Display aspect ratio : 16:9
Frame rate : 25.000 fps
Color space : YUV
Chroma subsampling : 4:2:0
Bit depth : 8 bits
Scan type : Progressive
Compression mode : Lossy
Bits/(Pixel*Frame) : 0.255
Stream size : 574 MiB (93%)
Writing library : XviD 1.2.1 (UTC 2008-12-04)
Audio
ID : 1
Format : MPEG Audio
Format version : Version 1
Format profile : Layer 3
Mode : Joint stereo
Mode extension : MS Stereo
Codec ID : 55
Codec ID/Hint : MP3
Duration : 43mn 41s
Bit rate mode : Constant
Bit rate : 128 Kbps
Channel(s) : 2 channels
Sampling rate : 48.0 KHz
Compression mode : Lossy
Stream size : 40.0 MiB (6%)
Alignment : Aligned on interleaves
Interleave, duration : 40 ms (1.00 video frame)
Interleave, preload duration : 504 ms
Writing library : LAME3.99r
Encoding settings : -m j -V 4 -q 9 -lowpass 17 -b 128

Создавать темы 29-Июл-2017 09:55

[Профиль]  [ЛС] 

Джамиль

Стаж: 1 год 4 месяца

Сообщений: 2

дайте скорости

Создавать темы 29-Июл-2017 19:37

[Профиль]  [ЛС] 

Hackers

Стаж: 2 года 9 месяцев

Сообщений: 3

Симпатии: 4

на раздачу киньте

Создавать темы 07-Авг-2017 22:38

[Профиль]  [ЛС] 

Hackers

Стаж: 2 года 9 месяцев

Сообщений: 3

Симпатии: 4

дайте скорости пожалуйста

Создавать темы 07-Авг-2017 22:58

[Профиль]  [ЛС] 
Показать сообщения:    
Ответить на тему

Текущее время: 14-Дек 18:22

Часовой пояс: UTC + 5



Вы не можете начинать темы
Вы не можете отвечать на сообщения
Вы не можете редактировать свои сообщения
Вы не можете удалять свои сообщения
Вы не можете голосовать в опросах
Вы не можете прикреплять файлы к сообщениям
Вы не можете скачивать файлы