6 кадров - 8 сезон (заключительный) (244-321 выпуски) [Россия, 2014 г., Скетч-шоу, SATRip]

Ответить на тему
 

фазилов ®

Стаж: 3 года 10 месяцев

Сообщений: 310

Симпатии: 344


8 сезон (полный)
(заключительный)
(244-321 выпуски) Год выпуска: 2014
Страна: Россия
Жанр: Скетч-шоу
Продолжительность: 78 выпусков 30:37:55 (1 х ~24 мин.)
Описание: «6 кадров» - первая российская скетч-программа!
«6 кадров» – это актуальные сюжеты на злобу дня, отличный юмор и море позитива! Короткие анекдотические ситуации разыгрывают шесть блестящих комедийных актеров: Галина Данилова, Ирина Медведева, Эдуард Радзюкевич, Андрей Кайков, Федор Добронравов и Сергей Дорогов. В «6 кадрах» в гротескном виде представлена повседневная жизнь обычного россиянина.
Шесть актеров мастерски разыгрывают миниатюрные кинокомедии с неожиданным финалом. Похоже, они сами считают, что вся жизнь - это скетч-шоу. И пусть злые языки твердят, что придумать смешную шутку невозможно. Еще как возможно! "Шесть кадров" в каждом выпуске показывают тебе, как весело и непринуждённо можно обыграть любую жизненную ситуацию.


Дополнительная информация:
Награды и достижения
Премия «Золотой Носорог 2011» — в номинации «Лучший скетч».
«ТЭФИ 2011» — в номинации «Режиссёр телевизионной программы» (получил Александр Жигалкин).

В ролях:
Федор Добронравов , Сергей Дорогов
Эдуард Радзюкевич , Андрей Кайков
Галина Данилова , Ирина Медведева

Качество: SATRip
Формат: AVI
Видео кодек: XviD
Аудио кодек: АС-3
Видео: 720х400 & 704х396 , 25 fps, XviD MPEG-4, 1550 kbps avg, 0.21 bit/pixel,
Аудио: 48 kHz, MPEG Layer 3, 2 ch, ~192.00 kbps avg

Media-info

Общее
Полное имя : D:\Мои релизы\6 кадров\6 кадров-8 сезон (244-321 выпуски)\6 кадров. Выпуск №244 (2014).avi
Формат : AVI
Формат/Информация : Audio Video Interleave
Размер файла : 294 Мбайт
Продолжительность : 23 м. 26 с.
Общий поток : 1751 Кбит/сек
Программа кодирования : VirtualDubMod 1.5.10.3 | www.virtualdub-fr.org || (build 2550/release)
Библиотека кодирования : VirtualDubMod build 2550/release
Видео
Идентификатор : 0
Формат : MPEG-4 Visual
Профиль формата : Advanced [email protected]
Параметр BVOP формата : 2
Параметр QPel формата : Нет
Параметр GMC формата : Без точки перехода
Параметр матрицы формата : Default (H.263)
Идентификатор кодека : XVID
Идентификатор кодека/Подсказка : XviD
Продолжительность : 23 м. 26 с.
Битрейт : 1550 Кбит/сек
Ширина : 720 пикселей
Высота : 400 пикселей
Соотношение сторон : 16:9
Частота кадров : 25,000 кадров/сек
Цветовое пространство : YUV
Субдискретизация насыщенности : 4:2:0
Битовая глубина : 8 бит
Тип развёртки : Прогрессивная
Метод сжатия : С потерями
Бит/(Пиксели*Кадры) : 0.215
Размер потока : 260 Мбайт (88%)
Библиотека кодирования : XviD 1.2.1 (UTC 2008-12-04)
Аудио
Идентификатор : 1
Формат : AC-3
Формат/Информация : Audio Coding 3
Расширение режима : CM (complete main)
Параметр Endianness формата : Big
Идентификатор кодека : 2000
Продолжительность : 23 м. 26 с.
Вид битрейта : Постоянный
Битрейт : 192 Кбит/сек
Каналы : 2 канала
Расположение каналов : Front: L R
Частота : 48,0 КГц
Частота кадров : 31,250 кадров/сек (1536 spf)
Битовая глубина : 16 бит
Метод сжатия : С потерями
Размер потока : 32,2 Мбайт (11%)
Выравнивание : Разделение по промежуткам
Продолжительность промежутка : 40 мс. (1,00 видеокадр)
Время предзагрузки промежутка : 500 мс.

Скриншоты

Создавать темы 31-Июл-2017 09:32

[Профиль]  [ЛС] 

фазилов ®

Стаж: 3 года 10 месяцев

Сообщений: 310

Симпатии: 344


Это последний сезон. В 2014 году скетч-шоу прекратило существование. Группа разошлась.
Выложены все 8 сезонов (321 выпуск) + "Дорогая передача" + "6 кадров. Нам 5 лет"
Спасибо за терпение. Релиз закончен. aa

Создавать темы 31-Июл-2017 09:34

[Профиль]  [ЛС] 
Показать сообщения:    
Ответить на тему

Текущее время: 13-Дек 23:59

Часовой пояс: UTC + 5



Вы не можете начинать темы
Вы не можете отвечать на сообщения
Вы не можете редактировать свои сообщения
Вы не можете удалять свои сообщения
Вы не можете голосовать в опросах
Вы не можете прикреплять файлы к сообщениям
Вы не можете скачивать файлы