[Фестиваль Белые Ночи Санкт-Петербурга 2017.07.10, 2017, Россия, Pop, HDTVRip]

Ответить на тему
 

JurPrint ®

Стаж: 5 лет 1 месяц

Сообщений: 28

Симпатии: 9

Фестиваль Белые Ночи Санкт-Петербурга 2017.07.10
Страна: Россия
Жанр: Pop
Год выпуска: 2017
Продолжительность: 02:01:00
Доп. информация: В этом году фестиваль предстанет в обновленном формате. Организаторы делают акцент на ставшем традиционном высоком уровне концерта и обширной музыкальной программе. Конкурсная программа фестиваля останется без изменений, охватывая максимальное количество стран-участников. Судейство конкурсантов будет проводить авторитетное жюри. По замыслу организаторов обновленный фестиваль должен стать самым запоминающимся событием этого музыкального года! 10 июля, в заключительный день музыкального состязания в БКЗ "Октябрьский", зрителей ждет подведение итогов, выступление финалистов и награждение победителей. Хедлайнерами последнего дня фестиваля станут New Power Generation и Jason Derulo. Кроме того, приедут такие именитые гости, как Софи Лорен и Ален Делон. Поздравят участников в этот день Ани Лорак, Стас Михайлов, Тамара Гвардцители, ВладиМир, ЮрКисс и многие другие артисты.
Качество видео: HDTV 1080i
Формат видео: TS
Видео: H264; 1920x1080 (16:9); 25.000 fps; ~12.1 Mb/s
Аудио: AC3, 6 channels, 48000Hz, 384 Кбит/сек
Аудио 2: MPEG Audio 48000Hz stereo 192 Кбит/сек

Треклист

01. Алексей Воробьев Елена Север - Танго
02. Scorpions - Still loving you
03. Леонид Агутин и Вилли Кей - Самба
04. Nick West / Ник Вест - Say Somethin
05. Ани Лорак - Ты еще любишь
06. Alejandro Irizarry - Despacito
07. Полина Гагарина - Драмы Больше Нет
08. Alma & Niro Resende - Paroles, paroles
09. VladiMIR / ВладиМир - Только мне решать
10. Стас Михайлов - Журавли летят в Китай
11. Стас Михайлов и Елена Север - Не зови, не слышу
12. Busta Rhymes - I Know What You Want
13. Dr Feelgood - Going Back Home
14. QUEENS / Королевы - Живая
15. Andrea Nachero - Malafemmena
16. Земляне - Свеча
17. Kid Creole & The Coconuts - Don't Take My Coconuts
18. Русские - Девчонка
19. Jason Derulo - Wiggle
20. Tena Eve / Тина Ива - At last
21. UrKiss / ЮрКисс - Маргарита Что ты сделала не так
22. George Gakis - Is This Love
23. Phrimaphaa Khornrojjanachawin - Stone Cold
24. Александр Иванов - Забытая
25. New Power Generation - Cream
26. New Power Generation & ЮрКисс - Sexy MF
27. СПБ - Родина футбола
28. Sondoro Sandhy - When a man love a woman
29. Scorpions - Wind of Change

MediaInfo

General
ID : 1 (0x1)
Complete name : D:\Concert\Белые ночи Санкт-Петербурга 2017.07.10.ts
Format : MPEG-TS
File size : 11.3 GiB
Duration : 2 h 1 min
Overall bit rate mode : Variable
Overall bit rate : 13.3 Mb/s
Video
ID : 205 (0xCD)
Menu ID : 20105 (0x4E89)
Format : AVC
Format/Info : Advanced Video Codec
Format profile : [email protected]
Format settings, CABAC : Yes
Format settings, RefFrames : 4 frames
Format settings, GOP : M=4, N=28
Codec ID : 27
Duration : 2 h 1 min
Bit rate : 12.1 Mb/s
Width : 1 920 pixels
Height : 1 080 pixels
Display aspect ratio : 16:9
Frame rate : 25.000 FPS
Standard : Component
Color space : YUV
Chroma subsampling : 4:2:0
Bit depth : 8 bits
Scan type : Interlaced
Scan type, store method : Separated fields
Scan order : Top Field First
Bits/(Pixel*Frame) : 0.233
Stream size : 10.3 GiB (91%)
Color range : Limited
Color primaries : BT.709
Transfer characteristics : BT.709
Matrix coefficients : BT.709
Audio #1
ID : 305 (0x131)
Menu ID : 20105 (0x4E89)
Format : AC-3
Format/Info : Audio Coding 3
Format settings, Endianness : Big
Codec ID : 6
Duration : 2 h 1 min
Bit rate mode : Constant
Bit rate : 384 kb/s
Channel(s) : 6 channels
Channel positions : Front: L C R, Side: L R, LFE
Sampling rate : 48.0 kHz
Frame rate : 31.250 FPS (1536 SPF)
Bit depth : 16 bits
Compression mode : Lossy
Stream size : 334 MiB (3%)
Language : Russian
Service kind : Complete Main
Audio #2
ID : 306 (0x132)
Menu ID : 20105 (0x4E89)
Format : MPEG Audio
Format version : Version 1
Format profile : Layer 2
Codec ID : 3
Duration : 2 h 1 min
Bit rate mode : Constant
Bit rate : 192 kb/s
Channel(s) : 2 channels
Sampling rate : 48.0 kHz
Compression mode : Lossy
Stream size : 167 MiB (1%)
Language : Russian

Скриншоты

Создавать темы 05-Авг-2017 17:51

[Профиль]  [ЛС] 

infinity2go

Стаж: 5 лет 11 месяцев

Сообщений: 25

а есть поскромнее размер?

Создавать темы 06-Авг-2017 07:57

[Профиль]  [ЛС] 

JurPrint ®

Стаж: 5 лет 1 месяц

Сообщений: 28

Симпатии: 9

996024а есть поскромнее размер?
нет, только такой. качайте, скорость отдачи нормальная.

Создавать темы 06-Авг-2017 12:21

[Профиль]  [ЛС] 
Показать сообщения:    
Ответить на тему

Текущее время: 13-Дек 23:56

Часовой пояс: UTC + 5



Вы не можете начинать темы
Вы не можете отвечать на сообщения
Вы не можете редактировать свои сообщения
Вы не можете удалять свои сообщения
Вы не можете голосовать в опросах
Вы не можете прикреплять файлы к сообщениям
Вы не можете скачивать файлы