Стражи Галактики. Часть 2 / Guardians of the Galaxy Vol. 2 (Джеймс Ганн) [2017, США, Фантастика, Боевик, Приключения, WEB-DLRip] [iTunes]

Ответить на тему
 

ruhal ®

Стаж: 2 года 8 месяцев

Сообщений: 1181

Симпатии: 1836

- -Стражи Галактики. Часть 2 / Guardians of the Galaxy Vol. 2
- Страна: США
Жанр: Фантастика, Боевик, Приключения
Год выпуска: 2017
Продолжительность: 02:16:01-Перевод: Профессиональный (дублированный) (iTunes)
Cубтитры: нет-Режиссер: Джеймс Ганн-В ролях: Крис Пратт, Зои Салдана, Дэйв Батиста, Вин Дизель, Брэдли Купер, Майкл Рукер,
Карен Гиллан, Пом Клементьефф, Элизабет Дебики, Курт Рассел-Описание: Все в сборе: землянин Питер Квилл (Звездный Лорд), молчаливый громила Дракс,
зеленокожая наемница Гамора, живое дерево Грут и говорящий енот. Герои не изменяют себе и с
завидной регулярностью продолжают попадать в немыслимые ситуации, выпутываясь из них почти без ущерба
(а иногда даже с пользой) для окружающих. На этот раз им предстоит раскрыть одну из самых главных тайн
во всей Галактике: кто же на самом деле отец Питера Квилла?-Качество видео: WEB-DLRip
Формат видео: AVI
Видео: XviD, 720x304, 1045 kbps
Аудио: 48 kHz, AC3 Dolby Digital, 3/2 (L,C,R,l,r) + LFE ch, ~384 kbps
-

MediaInfo

Общее
Полное имя : D:\Стражи.Галактики.2.2017.WEB-DLRip.NNMClub\Стражи.Галактики.2.2017.WEB-DLRip.NNMClub.avi
Формат : AVI
Формат/Информация : Audio Video Interleave
Размер файла : 1,37 Гбайт
Продолжительность : 2 ч. 16 м.
Общий поток : 1437 Кбит/сек
Программа кодирования : VirtualDubMod 1.5.10.2 (build 2540/release)
Библиотека кодирования : VirtualDubMod build 2540/release
Видео
Идентификатор : 0
Формат : MPEG-4 Visual
Профиль формата : Advanced [email protected]
Параметр BVOP формата : 2
Параметр QPel формата : Нет
Параметр GMC формата : Без точки перехода
Параметр матрицы формата : Default (MPEG)
Идентификатор кодека : XVID
Идентификатор кодека/Подсказка : XviD
Продолжительность : 2 ч. 16 м.
Битрейт : 1045 Кбит/сек
Ширина : 720 пикселей
Высота : 304 пикселя
Соотношение сторон : 2,35:1
Частота кадров : 23,976 (24000/1001) кадра/сек
Цветовое пространство : YUV
Субдискретизация насыщенности : 4:2:0
Битовая глубина : 8 бит
Тип развёртки : Прогрессивная
Метод сжатия : С потерями
Бит/(Пиксели*Кадры) : 0.199
Размер потока : 1017 Мбайт (73%)
Библиотека кодирования : XviD 1.2.1 (UTC 2008-12-04)
Аудио
Идентификатор : 1
Формат : AC-3
Формат/Информация : Audio Coding 3
Расширение режима : CM (complete main)
Параметр Endianness формата : Big
Идентификатор кодека : 2000
Продолжительность : 2 ч. 15 м.
Вид битрейта : Постоянный
Битрейт : 384 Кбит/сек
Каналы : 6 каналов
Расположение каналов : Front: L C R, Side: L R, LFE
Частота : 48,0 КГц
Частота кадров : 31,250 кадров/сек (1536 spf)
Метод сжатия : С потерями
Размер потока : 373 Мбайт (27%)
Выравнивание : Разделение по промежуткам
Продолжительность промежутка : 42 мс. (1,00 видеокадр)
Время предзагрузки промежутка : 500 мс.

Создавать темы 08-Авг-2017 06:18

[Профиль]  [ЛС] 

Damir951

Стаж: 11 месяцев 18 дней

Сообщений: 2

Симпатии: 1

О, как же долго я этого ждал! Спасибо чувак, ты лучший!

Комментарий от ruhal


aa

Создавать темы 08-Авг-2017 07:05

[Профиль]  [ЛС] 

snado

Стаж: 3 года 10 месяцев

Сообщений: 5

Что торрент умер что ли, куда ни захожу нет ни сидера ни личеров? да что такое???

Создавать темы 08-Авг-2017 09:23

[Профиль]  [ЛС] 

xrustic

Стаж: 1 год 8 месяцев

Сообщений: 1

наконец то можно посмотреть в качестве тот шедевр))) респект автору

Создавать темы 08-Авг-2017 15:50

[Профиль]  [ЛС] 

mp1988

Стаж: 6 лет 10 месяцев

Сообщений: 607

Симпатии: 971

http://tas-ix.me/viewtopic.php?t=117657- Стражи Галактики. Часть 2 / Guardians of the Galaxy Vol. 2 (Джеймс Ганн/James Gunn) [2017г., Фантастика, боевик, приключения, WEB-DL 1080p] | iTunes

Создавать темы 08-Авг-2017 20:47

[Профиль]  [ЛС] 

OtabekK

Стаж: 1 год 3 месяца

Сообщений: 9

Симпатии: 1

996100http://tas-ix.me/viewtopic.php?t=117657- Стражи Галактики. Часть 2 / Guardians of the Galaxy Vol. 2 (Джеймс Ганн/James Gunn) [2017г., Фантастика, боевик, приключения, WEB-DL 1080p] | iTunes
Качество просто супер!!! aa

Создавать темы 10-Авг-2017 20:55

[Профиль]  [ЛС] 

OtabekK

Стаж: 1 год 3 месяца

Сообщений: 9

Симпатии: 1

Классный фильм!!!

Создавать темы 10-Авг-2017 20:55

[Профиль]  [ЛС] 
Показать сообщения:    
Ответить на тему

Текущее время: 14-Дек 00:01

Часовой пояс: UTC + 5



Вы не можете начинать темы
Вы не можете отвечать на сообщения
Вы не можете редактировать свои сообщения
Вы не можете удалять свои сообщения
Вы не можете голосовать в опросах
Вы не можете прикреплять файлы к сообщениям
Вы не можете скачивать файлы