Место встречи изменить нельзя [01-05 из 05] (Станислав Говорухин) [1979г, Детектив, криминальный фильм, экранизация, BDRip]

Ответить на тему
 

Rammstein ®

Стаж: 5 лет 5 месяцев

Сообщений: 274

Симпатии: 68

Место встречи изменить нельзя

Год выхода: 1979
Жанр: Детектив, криминальный фильм, экранизация
Режиссер: Станислав Говорухин
В ролях: Владимир Высоцкий, Владимир Конкин, Сергей Юрский, Александр Белявский, Виктор Павлов, Армен Джигарханян, Зиновий Гердт, Наталья Фатеева, Леонид Куравлёв, Светлана Светличная, Евгений Евстигнеев, Валерия Заклунная, Евгений Шутов, Лев Перфилов, Александр Милютин, Андрей Градов, Наталья Данилова, Алексей Миронов, Всеволод Абдулов, Евгений Леонов-Гладышев, Нина Корниенко, Павел Махотин, Лариса Удовиченко, Иван Бортник, Станислав Садальский, Владлен Паулус, Людмила Давыдова, Екатерина Градова, Олег Савосин, Владимир Жариков, Юнона Карева, Николай Слесарев, Наталья Петрова, Нина Озорнина, Татьяна Ткач, Наталия Ченчик, Александр Абдулов, Наталья Крачковская, Валентин Кулик
О фильме: Лето 1945 года. Отгремел салют Великой Победы и страна постепенно возвращается к мирной жизни. Из "огня да в полымя" попадает молоденький командир разведроты Володя Шарапов, придя по распределению в МУР, в отдел по борьбе с бандитизмом. В городе лютует банда "Чёрная кошка", наводя ужас на москвичей. В схватку с бандитами вступает капитан Глеб Жеглов, для которого Шарапов вскоре становится правой рукой...
Капитан Жеглов в этой картине, снятой по роману братьев Вайнеров режиссёром Станиславом Говорухиным, это одна из самых ярких ролей гениального Владимира Высоцкого. Созданный образ беспощадного борца с бандитами, настоящего героя послевоенного времени, бесподобен по своему реализму и эмоциональной насыщенности.
Выпущено: СССР / "Одесская киностудия"
Продолжительность: 5 x ~ 01:15:00
Качество: BDRip
Формат: AVI
Кодек: XviD
Аудио кодек: AC3
Видео: 720x544, 4:3, 23,976 fps, ~1839 kbps avg, 0.195 bit/pixel
Аудио: AC3, 48 kHz, 2 ch, 384 kbps avg

MI

Общее
Полное имя : D:\Торренты\Советское кино\Место встречи изменить нельзя\Mesto.vstrechi.izmenitj.neljzja.(serija.01).1979.XviD.BDRip.by.GeneralFilm.avi
Формат : AVI
Формат/Информация : Audio Video Interleave
Размер файла : 1,08 Гбайт
Продолжительность : 1 ч. 9 м.
Общий поток : 2229 Кбит/сек
Программа кодирования : VirtualDubMod 1.5.10.3 | www.virtualdub-fr.org || (build 2550/release)
Библиотека кодирования : VirtualDubMod build 2550/release
Видео
Идентификатор : 0
Формат : MPEG-4 Visual
Профиль формата : Advanced [email protected]
Параметр BVOP формата : 2
Параметр QPel формата : Нет
Параметр GMC формата : Без точки перехода
Параметр матрицы формата : Выборочная
Идентификатор кодека : XVID
Идентификатор кодека/Подсказка : XviD
Продолжительность : 1 ч. 9 м.
Битрейт : 1839 Кбит/сек
Ширина : 720 пикселей
Высота : 544 пикселя
Соотношение сторон : 4:3
Частота кадров : 23,976 (24000/1001) кадра/сек
Цветовое пространство : YUV
Субдискретизация насыщенности : 4:2:0
Битовая глубина : 8 бит
Тип развёртки : Прогрессивная
Метод сжатия : С потерями
Бит/(Пиксели*Кадры) : 0.196
Размер потока : 916 Мбайт (83%)
Библиотека кодирования : XviD 1.2.1 (UTC 2008-12-04)
Аудио
Идентификатор : 1
Формат : AC-3
Формат/Информация : Audio Coding 3
Параметр Endianness формата : Big
Идентификатор кодека : 2000
Продолжительность : 1 ч. 8 м.
Вид битрейта : Постоянный
Битрейт : 384 Кбит/сек
Каналы : 2 канала
Расположение каналов : Front: L R
Частота : 48,0 КГц
Частота кадров : 31,250 кадров/сек (1536 spf)
Битовая глубина : 16 бит
Метод сжатия : С потерями
Размер потока : 189 Мбайт (17%)
Выравнивание : Разделение по промежуткам
Продолжительность промежутка : 42 мс. (1,01 видеокадр)
Время предзагрузки промежутка : 500 мс.
ServiceKind/String : Complete Main

Создавать темы 08-Авг-2017 13:35

[Профиль]  [ЛС] 

фазилов

Стаж: 3 года 10 месяцев

Сообщений: 310

Симпатии: 344

Тут тоже есть http://tas-ix.me/viewtopic.php?t=116559&spmode=full#seeders

Создавать темы 09-Авг-2017 08:23

[Профиль]  [ЛС] 
Показать сообщения:    
Ответить на тему

Текущее время: 14-Дек 00:00

Часовой пояс: UTC + 5



Вы не можете начинать темы
Вы не можете отвечать на сообщения
Вы не можете редактировать свои сообщения
Вы не можете удалять свои сообщения
Вы не можете голосовать в опросах
Вы не можете прикреплять файлы к сообщениям
Вы не можете скачивать файлы