Скачать Выстрел в пустоту / Shot Caller (Рик Роман Во) [2017, США, триллер, драма, криминал, HDRip] [iTunes] в Тас-икс (Tas-ix)

Ответить на тему
 

ruhal ®

Стаж: 3 года 7 месяцев

Сообщений: 2039

Симпатии: 2486

-Выстрел в пустоту / Shot Caller- Год выпуска: 2017
Страна: США
Жанр: Триллер, драма, криминал
Продолжительность: 02:01:51- Перевод: Профессиональный (полное дублирование) [[iTunes]
Cубтитры: Нет- Режиссер: Рик Роман Во- В ролях: Джон Бернтал, Николай Костер-Вальдау, Лэйк Белл, Омари Хардвик,
Джеффри Донован, Эмори Коэн, Бенджамин Брэтт, Джесси Шрэм- Описание: Роковая случайность, смертельная трагедия, и вся его жизнь летит под откос…
Оказавшись за решёткой, он должен научиться жить по новым законам. Ты должен стать борцом,
авторитетом или окажешься жертвой. Какую цену придётся заплатить, чтобы выжить в этом аду,
из которого нет дороги назад..?-Качество видео: HDRip
Формат видео: AVI
Видео: Xvid 720x304 23.976fps 1331kbps
Аудио: Dolby AC3 48000Hz 6ch 384kbps
-

MI

General
Complete name : E:\Films\Shot.Caller.2017.D.HDRip.149OMB.avi
Format : AVI
Format/Info : Audio Video Interleave
File size : 1.45 GiB
Duration : 2h 0mn
Overall bit rate : 1 725 Kbps
Movie name : ByCtP3L.B.puCt0tu.2O17.D.HdRip.1.46GB
Writing application : VirtualDubMod 1.5.10.2 (build 2540/release)
Original source form/Name : Movie
Video
ID : 0
Format : MPEG-4 Visual
Format profile : Advanced [email protected]
Format settings, BVOP : 2
Format settings, QPel : No
Format settings, GMC : No warppoints
Format settings, Matrix : Default (MPEG)
Codec ID : XVID
Codec ID/Hint : XviD
Duration : 2h 0mn
Bit rate : 1 332 Kbps
Width : 720 pixels
Height : 304 pixels
Display aspect ratio : 2.35:1
Frame rate : 23.976 fps
Color space : YUV
Chroma subsampling : 4:2:0
Bit depth : 8 bits
Scan type : Progressive
Compression mode : Lossy
Bits/(Pixel*Frame) : 0.254
Stream size : 1.12 GiB (77%)
Writing library : XviD 1.2.1 (UTC 2008-12-04)
Audio
ID : 1
Format : AC-3
Format/Info : Audio Coding 3
Mode extension : CM (complete main)
Format settings, Endianness : Big
Codec ID : 2000
Duration : 2h 0mn
Bit rate mode : Constant
Bit rate : 384 Kbps
Channel(s) : 6 channels
Channel positions : Front: L C R, Side: L R, LFE
Sampling rate : 48.0 KHz
Bit depth : 16 bits
Compression mode : Lossy
Stream size : 331 MiB (22%)
Alignment : Split accross interleaves
Interleave, duration : 42 ms (1.00 video frame)
Interleave, preload duration : 500 ms

Создавать темы 11-Авг-2017 08:00

[Профиль]  [ЛС] 

mp1988

Стаж: 7 лет 9 месяцев

Сообщений: 664

Симпатии: 1090

http://tas-ix.me/viewtopic.php?t=117670 - BDRip 1080p

Создавать темы 11-Авг-2017 20:39

[Профиль]  [ЛС] 

outsider

Стаж: 2 года 2 месяца

Сообщений: 2

как филмец?

Создавать темы 17-Авг-2017 13:55

[Профиль]  [ЛС] 

Ahilless

Стаж: 6 лет 9 месяцев

Сообщений: 115

Симпатии: 10

996310как филмец?
Нормальный фильмец! ay

Создавать темы 17-Авг-2017 23:42

[Профиль]  [ЛС] 
Показать сообщения:    
Ответить на тему

Текущее время: 13-Ноя 23:58

Часовой пояс: UTC + 5



Вы не можете начинать темы
Вы не можете отвечать на сообщения
Вы не можете редактировать свои сообщения
Вы не можете удалять свои сообщения
Вы не можете голосовать в опросах
Вы не можете прикреплять файлы к сообщениям
Вы не можете скачивать файлы