Скачать Трансформеры: Последний рыцарь в 3Д / Transformers: The Last Knight 3D (Майкл Бэй / Michael Bay) [2017, Фантастика, Боевик, Триллер, Приключения, BDRip 1080p] 3D в Тас-икс (Tas-ix)

Ответить на тему
 

ruhal ®

Стаж: 3 года 6 месяцев

Сообщений: 2039

Симпатии: 2486

-Трансформеры: Последний рыцарь в / Transformers: The Last Knight 3D-
Год выпуска: 2017
Страна: США (Paramount Pictures, Huahua Media, Weying Galaxy, The H Collective, Hasbro)
Жанр: Фантастика, Боевик, Триллер, Приключения
Продолжительность: 02:34:38
Субтитры: Русские (forced, full), английские
Перевод: Профессиональный дублированный - iTunes-Режиссер: Майкл Бэй-В ролях: Марк Уолберг, Энтони Хопкинс, Джош Дюамель, Лора Хэддок, Сантьяго Кабрера,
Изабела Монер, Джеррод Кармайкл, Стэнли Туччи, Лиам Гэрриган, Мартин МакКриди-Описание: Оптимус Прайм исчез. Люди ведут войну с Трансформерами. Ключ к нашему будущему погребен в тайнах прошлого,
в скрытой истории Трансформеров на Земле… Миссия по спасению мира ложится на плечи разношерстной компании, состоящей
из Кейда Йегера, Бамблби, английского лорда и профессора из Оксфорда. Пришла пора действовать! Жертвы станут героями.
Герои станут злодеями. Выстоит только один мир: их или наш.-Качество: BDRip 1080p | 3D-HSBS
Видео: MPEG-4 AVC, 1920x1080, 13.8 Mbit/s, 23.976 fps
Формат 3D: Anamorph SideBySide / Горизонтальная анаморфная стереопара
Порядок ракурсов: левый ракурс первый
Аудио #01: 48 kHz, AC3, 5.1, 384 Kbps | Дублированный | iTunes | RUS |
Аудио #02: 48 kHz, AC3, 5.1, 640 Kbps | Оригинал | ENG |
-

MI

General
Unique ID : 227192889457874014779915168657030776647 (0xAAEBC247001087FAACE3DFB613F00747)
Complete name : E:\Films\Transformers.The.Last.Knight.2017.3D.HSBS.BDRip.1080p.mkv
Format : Matroska
Format version : Version 4 / Version 2
File size : 16.0 GiB
Duration : 2h 34mn
Overall bit rate : 14.8 Mbps
Encoded date : UTC 2017-09-24 07:43:26
Writing application : mkvmerge v15.0.0 ('Duel with the Devil') 64-bit
Writing library : libebml v1.3.5 + libmatroska v1.4.5
DURATION : 02:25:48.781000000
NUMBER_OF_FRAMES : 2617
NUMBER_OF_BYTES : 80160
_STATISTICS_WRITING_APP : mkvmerge v15.0.0 ('Duel with the Devil') 64-bit
_STATISTICS_WRITING_DATE_UTC : 2017-09-24 07:43:26
_STATISTICS_TAGS : BPS DURATION NUMBER_OF_FRAMES NUMBER_OF_BYTES
Video
ID : 1
Format : AVC
Format/Info : Advanced Video Codec
Format profile : [email protected]
Format settings, CABAC : Yes
Format settings, ReFrames : 4 frames
Codec ID : V_MPEG4/ISO/AVC
Duration : 2h 34mn
Bit rate : 13.8 Mbps
Width : 1 920 pixels
Height : 1 080 pixels
Display aspect ratio : 16:9
Frame rate mode : Constant
Frame rate : 23.976 fps
Color space : YUV
Chroma subsampling : 4:2:0
Bit depth : 8 bits
Scan type : Progressive
Bits/(Pixel*Frame) : 0.278
Stream size : 14.6 GiB (91%)
Writing library : x264 core 148 r2705 3f5ed56
Encoding settings : cabac=1 / ref=4 / deblock=1:-2:-2 / analyse=0x3:0x133 / me=umh / subme=10 / psy=1 / psy_rd=1.05:0.05 / mixed_ref=1 / me_range=32 / chroma_me=1 / trellis=2 / 8x8dct=1 / cqm=0 / deadzone=21,11 / fast_pskip=0 / chroma_qp_offset=-3 / threads=12 / lookahead_threads=2 / sliced_threads=0 / nr=0 / decimate=0 / interlaced=0 / bluray_compat=0 / constrained_intra=0 / bframes=8 / b_pyramid=2 / b_adapt=2 / b_bias=0 / direct=3 / weightb=1 / open_gop=0 / weightp=2 / keyint=240 / keyint_min=23 / scenecut=40 / intra_refresh=0 / rc_lookahead=50 / rc=2pass / mbtree=0 / bitrate=13800 / ratetol=1.0 / qcomp=0.60 / qpmin=0 / qpmax=69 / qpstep=4 / cplxblur=20.0 / qblur=0.5 / vbv_maxrate=50000 / vbv_bufsize=62500 / nal_hrd=none / filler=0 / ip_ratio=1.40 / pb_ratio=1.30 / aq=3:0.80
Language : English
Default : Yes
Forced : No
DURATION : 02:34:37.936000000
NUMBER_OF_FRAMES : 222448
NUMBER_OF_BYTES : 15995867584
_STATISTICS_WRITING_APP : mkvmerge v15.0.0 ('Duel with the Devil') 64-bit
_STATISTICS_WRITING_DATE_UTC : 2017-09-24 07:43:26
_STATISTICS_TAGS : BPS DURATION NUMBER_OF_FRAMES NUMBER_OF_BYTES
Audio #1
ID : 2
Format : AC-3
Format/Info : Audio Coding 3
Mode extension : CM (complete main)
Format settings, Endianness : Big
Codec ID : A_AC3
Duration : 2h 34mn
Bit rate mode : Constant
Bit rate : 384 Kbps
Channel(s) : 6 channels
Channel positions : Front: L C R, Side: L R, LFE
Sampling rate : 48.0 KHz
Bit depth : 16 bits
Compression mode : Lossy
Stream size : 425 MiB (3%)
Title : iTunes
Language : Russian
Default : Yes
Forced : No
Audio #2
ID : 3
Format : AC-3
Format/Info : Audio Coding 3
Mode extension : CM (complete main)
Format settings, Endianness : Big
Codec ID : A_AC3
Duration : 2h 34mn
Bit rate mode : Constant
Bit rate : 640 Kbps
Channel(s) : 6 channels
Channel positions : Front: L C R, Side: L R, LFE
Sampling rate : 48.0 KHz
Bit depth : 16 bits
Compression mode : Lossy
Stream size : 708 MiB (4%)
Title : Original
Language : English
Default : No
Forced : No
Text #1
ID : 4
Format : UTF-8
Codec ID : S_TEXT/UTF8
Codec ID/Info : UTF-8 Plain Text
Title : Forced
Language : Russian
Default : Yes
Forced : No
Text #2
ID : 5
Format : UTF-8
Codec ID : S_TEXT/UTF8
Codec ID/Info : UTF-8 Plain Text
Title : Full
Language : Russian
Default : No
Forced : No
Text #3
ID : 6
Format : UTF-8
Codec ID : S_TEXT/UTF8
Codec ID/Info : UTF-8 Plain Text
Title : SDH
Language : English
Default : No
Forced : No
Menu
00:00:00.000 : en:(01)00:00:00:000
00:06:35.269 : en:(02)00:06:35:269
00:14:02.633 : en:(03)00:14:02:633
00:21:44.928 : en:(04)00:21:44:928
00:27:52.420 : en:(05)00:27:52:420
00:33:53.072 : en:(06)00:33:53:072
00:40:08.072 : en:(07)00:40:08:072
00:46:58.106 : en:(08)00:46:58:106
00:53:24.951 : en:(09)00:53:24:951
01:02:02.093 : en:(10)01:02:02:093
01:08:46.247 : en:(11)01:08:46:247
01:14:36.388 : en:(12)01:14:36:388
01:20:09.346 : en:(13)01:20:09:346
01:29:12.555 : en:(14)01:29:12:555
01:37:58.664 : en:(15)01:37:58:664
01:44:56.748 : en:(16)01:44:56:748
01:51:14.668 : en:(17)01:51:14:668
01:57:58.613 : en:(18)01:57:58:613
02:06:08.894 : en:(19)02:06:08:894
02:10:53.262 : en:(20)02:10:53:262
02:16:00.318 : en:(21)02:16:00:318
02:21:41.784 : en:(22)02:21:41:784
02:25:16.457 : en:(23)02:25:16:457
02:34:37.685 : en:(24)02:34:37:685

Создавать темы 25-Сен-2017 09:59

[Профиль]  [ЛС] 

jamil-3

Стаж: 6 лет 9 месяцев

Сообщений: 13

Симпатии: 2

уже 2 недели сижу... только 30% скачал. дайте раздачу ктонить плз а

Создавать темы 21-Апр-2018 22:14

[Профиль]  [ЛС] 
Показать сообщения:    
Ответить на тему

Текущее время: 19-Окт 15:14

Часовой пояс: UTC + 5



Вы не можете начинать темы
Вы не можете отвечать на сообщения
Вы не можете редактировать свои сообщения
Вы не можете удалять свои сообщения
Вы не можете голосовать в опросах
Вы не можете прикреплять файлы к сообщениям
Вы не можете скачивать файлы