Скачать Тьма | Блэк | Чёрный | Тёмный | Жнец | Детектив в черном | Black | Beulraek | Beullaek | Beul-laek / Сезон: 1 / Серии: 1-18 из 18 (Ким Хон Сон) [2017, фантастика, триллер, криминал, HDTV 720p] (DVO : HighHopesStudio) в Тас-икс (Tas-ix)

Ответить на тему
 

Rtuty ®

Стаж: 1 год 3 месяца

Сообщений: 308

Симпатии: 60

Тьма | Блэк | Чёрный | Тёмный | Жнец | Детектив в черном / Black | Beulraek | Beullaek | Beul-laek
-Он - Жнец смерти
Она - Предвидит смерть
- -Год выпуска: 2017
Страна: Южная Корея
Жанр: фантастика, триллер, криминал
Продолжительность: 1х 01:25:00
Возрастное ограничение: 18+
Перевод: Любительский (двухголосый закадровый) HighHopesStudio
Cубтитры: нет--Режиссер: Ким Хон Сон--В ролях: Сон Сын Хон , Го Ара , Ли Эль , Ким Дон Чжун , Чо Джэ Юн , Ли Гю Бок , Ким Вон Хэ , Чон Сок Ён , Ли Чхоль Мин , Хо Дже Хо , Ким Джэ Ён , Пак Ду Сик , О Чо Хи--Описание: Дорама о судьбе детектива по прозвищу Блэк, в чье тело воплотился «жнец для преступников», и о женщине, видящей смерть. В эту земную женщину, которая видит тени смерти, детектив Блэк влюбляется без памяти, тем самым нарушая волю небес. Оба героя спасают жизни людей.--Качество видео: HDTV 720p
Формат видео: MKV-Видео: MPEG4 Video (H264) 1280x720 29.97fps 2 828 kb/s
Аудио: AAC 48000Hz stereo 192 kb/s 2 channels

MediaInfo

General
Unique ID : 240932911705934517201601732198902981425 (0xB541FDAD36CB722890B5329E422AE331)
Complete name : C:\Тьма (1 сезон)\tma_s01e01.mkv
Format : Matroska
Format version : Version 4 / Version 2
File size : 1.80 GiB
Duration : 1 h 25 min
Overall bit rate mode : Variable
Overall bit rate : 3 023 kb/s
Encoded date : UTC 2017-10-15 12:13:42
Writing application : mkvmerge v11.0.0 ('Alive') 64bit
Writing library : libebml v1.3.4 + libmatroska v1.4.5
Video
ID : 2
Format : AVC
Format/Info : Advanced Video Codec
Format profile : [email protected]
Format settings : CABAC / 3 Ref Frames
Format settings, CABAC : Yes
Format settings, RefFrames : 3 frames
Format settings, GOP : M=4, N=15
Codec ID : V_MPEG4/ISO/AVC
Duration : 1 h 25 min
Bit rate mode : Variable
Bit rate : 2 828 kb/s
Maximum bit rate : 16.0 Mb/s
Width : 1 280 pixels
Height : 720 pixels
Display aspect ratio : 16:9
Frame rate mode : Constant
Frame rate : 29.970 (30000/1001) FPS
Standard : NTSC
Color space : YUV
Chroma subsampling : 4:2:0
Bit depth : 8 bits
Scan type : Progressive
Bits/(Pixel*Frame) : 0.102
Stream size : 1.68 GiB (94%)
Language : English
Default : Yes
Forced : No
Color range : Limited
Audio
ID : 1
Format : AAC
Format/Info : Advanced Audio Codec
Format profile : LC
Codec ID : A_AAC-2
Duration : 1 h 25 min
Bit rate : 192 kb/s
Channel(s) : 2 channels
Channel positions : Front: L R
Sampling rate : 48.0 kHz
Frame rate : 46.875 FPS (1024 SPF)
Compression mode : Lossy
Delay relative to video : -33 ms
Stream size : 117 MiB (6%)
Language : English
Default : Yes
Forced : No
-


Последний раз редактировалось: Rtuty (2017-12-13 15:01), всего редактировалось 11 раз(а)

Создавать темы 19-Окт-2017 01:52

[Профиль]  [ЛС] 

Rtuty ®

Стаж: 1 год 3 месяца

Сообщений: 308

Симпатии: 60

Добавлена 4-я серия

Создавать темы 23-Окт-2017 19:03

[Профиль]  [ЛС] 

Rtuty ®

Стаж: 1 год 3 месяца

Сообщений: 308

Симпатии: 60

Добавлена 7-я и 8-я серия

Создавать темы 07-Ноя-2017 10:40

[Профиль]  [ЛС] 

Rtuty ®

Стаж: 1 год 3 месяца

Сообщений: 308

Симпатии: 60

Добавлена 9-я серия

Создавать темы 13-Ноя-2017 12:35

[Профиль]  [ЛС] 

Rtuty ®

Стаж: 1 год 3 месяца

Сообщений: 308

Симпатии: 60

Добавлена 10-я серия

Создавать темы 20-Ноя-2017 09:39

[Профиль]  [ЛС] 

Rtuty ®

Стаж: 1 год 3 месяца

Сообщений: 308

Симпатии: 60

Добавлена 11-я серия

Создавать темы 21-Ноя-2017 14:24

[Профиль]  [ЛС] 

Rtuty ®

Стаж: 1 год 3 месяца

Сообщений: 308

Симпатии: 60

Добавлена 12-я серия

Создавать темы 22-Ноя-2017 17:00

[Профиль]  [ЛС] 

Holder

Стаж: 8 лет

Сообщений: 24

Остальные серии будут?

Создавать темы 30-Ноя-2017 22:05

[Профиль]  [ЛС] 

Rtuty ®

Стаж: 1 год 3 месяца

Сообщений: 308

Симпатии: 60

Добавлена 13-я, 14-я и 15-я серия

Создавать темы 04-Дек-2017 17:34

[Профиль]  [ЛС] 

Rtuty ®

Стаж: 1 год 3 месяца

Сообщений: 308

Симпатии: 60

Добавлена 16-я серия

Создавать темы 06-Дек-2017 12:45

[Профиль]  [ЛС] 

Rtuty ®

Стаж: 1 год 3 месяца

Сообщений: 308

Симпатии: 60

Добавлена 17-я серия

Создавать темы 12-Дек-2017 12:41

[Профиль]  [ЛС] 

Rtuty ®

Стаж: 1 год 3 месяца

Сообщений: 308

Симпатии: 60

Добавлена заключительная серия

Создавать темы 13-Дек-2017 15:03

[Профиль]  [ЛС] 

Топик был перенесен из форума Азиатские сериалы в форум Полные релизы
ruhal

Создавать темы 12-Июл-2018 17:31

 
Показать сообщения:    
Ответить на тему

Текущее время: 20-Авг 09:37

Часовой пояс: UTC + 5



Вы не можете начинать темы
Вы не можете отвечать на сообщения
Вы не можете редактировать свои сообщения
Вы не можете удалять свои сообщения
Вы не можете голосовать в опросах
Вы не можете прикреплять файлы к сообщениям
Вы не можете скачивать файлы