Скачать торрент Mind Your Language / Выбирайте выражения (TV series + English subtitles)

Ответить на тему
 

zero 21 ®

Стаж: 7 лет 1 месяц

Сообщений: 17

Симпатии: 1

Mind Your Language / Выбирайте выражения (TV series + English subtitles) Год выпуска: 1977-1979
Автор: Vince Powell
Издатель: LWT (Великобритания)
Категория: учебный сериал
Формат: DVDrip, avi+srt
Качество: видео mpeg4 (avi) - 1200 kbps, 640*480 (4:3), 25 fps; аудио - mp3 128 kbps, 44.1 KHz, 1 channel
Описание:
Mind Your Language is a British comedy television series that was originally aired on ITV between 1977 and 1979. Produced by LWT and directed by Stuart Allen, it is set in a school for adult students in London, focusing on the English as a Foreign Language class taught by Mr. Jeremy Brown, portrayed by Barry Evans, who had to deal with a motley crew of foreigners.
The series focuses on the adult students of the English as a Foreign Language class in a London school. The classes take place in the early evening, and are taught by Mr. Brown, though on occasion other individuals take over the class if he is not available. The class consists of foreigners with varying degrees of English proficiency. The humour of the show is derived from the students misunderstanding English words or terms, and plays up to the cultural stereotype of their individual nation of origin.
Season One takes place over a full school year, starting with Mr. Brown being hired by the Headmistress Miss Courtney, and ends with the students sitting for their Lower Cambridge Certificate. Season Two begins at the start of the next school year, with all ten previous students returning after having failed their exam, and two new students joining them, for a total of twelve. Season One and Two primarily took place within the classroom, but the later seasons explored settings outside of the school.
В этом умопомрачительно смешном сериале рассказывается о буднях лондонской языковой школы, в которой обучаются взрослые студенты-иностранцы. Мистеру Джереми Брауну достается непростой класс непослушных учеников разных национальностей с далеко неодинаковым уровнем английского.
В этом классе находится место всему: и религиозным распрям, и политическим разногласиям, и любовной интриге. Только вот изучению английского отводится мало места. На это просто не хватает времени! О том, как худо-бедно общаются эти горе-студенты, вызывая истерический смех у зрителей, вы можете судить сами, если конечно довольно сносно понимаете английскую речь. Ведь вся соль сериала и заключается в неправильном и нелепом употреблении незнакомых иностранцам слов и выражений, что создает их причудливую игру и приводит к неподражаемому комическому эффекту!
Доп. информация:
Первые три сезона сериала полностью есть в этой замечательной раздаче, правда, без субтитров.
В данной раздаче представлен рип с комплекта из 4-х DVD, выпущенных в 2003 году, с английскими субтитрами (к сожалению, не все эпизоды).
30.06.2012 в раздачу добавлены 6 серий третьего сезона и бонусный трек The Best Moments Of Mind Your Language (субтитры к бонусу отсутствуют) из альтернативного издания комплекта из 4-х DVD, выпущенного в 2007 году. Названия добавленных серий выделены под спойлером красным цветом.
По информации из Википедии, четвертый сезон до настоящего времени не издавался на DVD.

Скриншоты






MediaInfo

Complete name : D:\Torrent\Mind Your Language (with English subs)\Season 1\MYL s01e01 The First Lesson .avi
Format : AVI
Format/Info : Audio Video Interleave
File size : 229 MiB
Duration : 23mn 54s
Overall bit rate : 1 337 Kbps
Writing library : Boilsoft Joiner build 2411/release
Video
ID : 0
Format : MPEG-4 Visual
Format profile : [email protected]
Format settings, BVOP : No
Format settings, QPel : No
Format settings, GMC : No warppoints
Format settings, Matrix : Default (H.263)
Codec ID : XVID
Codec ID/Hint : XviD
Duration : 23mn 54s
Bit rate : 1 200 Kbps
Width : 640 pixels
Height : 480 pixels
Display aspect ratio : 4:3
Frame rate : 25.000 fps
Color space : YUV
Chroma subsampling : 4:2:0
Bit depth : 8 bits
Scan type : Progressive
Bits/(Pixel*Frame) : 0.156
Stream size : 205 MiB (90%)
Writing library : Magic0432
Audio
ID : 1
Format : MPEG Audio
Format version : Version 1
Format profile : Layer 3
Codec ID : 55
Codec ID/Hint : MP3
Duration : 23mn 54s
Bit rate mode : Constant
Bit rate : 128 Kbps
Channel(s) : 1 channel
Sampling rate : 44.1 KHz
Stream size : 21.9 MiB (10%)
Alignment : Split accross interleaves
Interleave, duration : 40 ms (1.00 video frame)
Interleave, preload duration : 500 ms

Серии

01. Эпизод 1 - The First Lesson (30 декабря 1977)
02. Эпизод 2 - An Inspector Calls (6 января 1978)
03. Эпизод 3 - A Fate Worse Than Death (13 января 1978)
04. Эпизод 4 - All Through the Night (20 января 1978)
05. Эпизод 5 - The Best Things in Life (27 января 1978)
06. Эпизод 6 - Come Back All Is Forgiven (3 февраля 1978)
07. Эпизод 7 - The Cheating Game (10 февраля 1978)
08. Эпизод 8 - Better to Have Loved and Lost (17 февраля 1978)
09. Эпизод 10 - Hello Sailor (3 марта 1978)
10. Эпизод 11 - A Point of Honour (10 марта 1978)
11. Эпизод 12 - How's Your Father (17 марта 1978)
12. Эпизод 13 - The Examination (24 марта 1978)
Сезон 2:
01. Эпизод 1 - All Present If Not Correct (7 октября 1978)
02. Эпизод 2 - Queen for a Day (14 октября 1978)
03. Эпизод 3 - Brief Re-Encounter (21 октября 1978)
04. Эпизод 4 - Many Happy Returns (28 октября 1978)
05. Эпизод 6 - A Hard Day's Night (11 ноября 1978)
06. Эпизод 7 - Take Your Partners (18 ноября 1978)
07. Эпизод 8 - After Three (17 февраля 1978)
Сезон 3:
01. Эпизод 1 - I Belong to Glasgow (27 октября 1979)
02. Эпизод 2 - Who Loves Ya Baby? (3 ноября 1979)
03. Эпизод 3 - No Flowers by Request (10 ноября 1979)
04. Эпизод 4 - Just the Job (17 ноября 1979)
05. Эпизод 6 - Repent at Leisure (1 декабря 1979)
06. Эпизод 7 - The School Fete (8 декабря 1979)
07. Эпизод 8 - What a Tangled Web (15 декабря 1979)
Бонус
The Best Moments Of Mind Your Language

Создавать темы 11-Ноя-2017 15:26

[Профиль]  [ЛС] 

bek4ever

Стаж: 7 лет 4 месяца

Сообщений: 58

Симпатии: 2

надо хотя бы с ютуба 5ю серию 3го сезона добить... az

Создавать темы 09-Апр-2018 23:14

[Профиль]  [ЛС] 
Показать сообщения:    
Ответить на тему

Текущее время: 23-Май 08:41

Часовой пояс: UTC + 5



Вы не можете начинать темы
Вы не можете отвечать на сообщения
Вы не можете редактировать свои сообщения
Вы не можете удалять свои сообщения
Вы не можете голосовать в опросах
Вы не можете прикреплять файлы к сообщениям
Вы не можете скачивать файлы