Скачать Путин. Документальный фильм Андрея Кондрашова (Андрей Кондрашов) [2018, Россия, ВГТРК, Документальный, политика, WEBRip] в Тас-икс (Tas-ix)

Ответить на тему
 

ruhal ®

Стаж: 3 года 4 месяца

Сообщений: 2039

Симпатии: 2486

-Путин.
Документальный фильм Андрея Кондрашова
-
Страна: Россия, ВГТРК
Жанр: Документальный, политика
Год выпуска: 2018
Продолжительность: 02:08:23 (1 часть), 01:52:58 (2 часть)-Перевод: Не требуется
Cубтитры: нет-Режиссер: Андрей Кондрашов-Описание: Фильм «Путин».
Впервые и так откровенно - друзья детства и юности, классный руководитель, сослуживцы по КГБ и коллеги по Штази. С кем Путин дрался во дворе и против кого с оружием выходил в Дрездене?..
Семья Путина. Откуда он родом? Его ДНК. Как один дед был поваром у Ленина, а другой спасал раненного им австрийца в окопах Первой Мировой. Кто застрелил бабушку Путина? Как погиб его старший брат? И как родители спасли друг друга?..
Берлускони сказал, что они с Путиным пьют секретные таблетки. Что это за препарат?
Почему Шредер, оказавшийся в горящей бане, потом скажет, что никогда бы не смог быть президентом России?..
Итак, новый фильм Андрея Кондрашова "Путин". Стоит посмотреть. Даже если нет времени.-Качество видео: WEBRip
Формат видео: MP4
Видео: MPEG4 Video (H264) 1280x720 25fps 1338kbps
Аудио: AAC 44100Hz stereo 125kbps
-

MediaInfo

General
Complete name : E:\Films\Путин. Документальный фильм Андрея Кондрашова\Putin.Part 1.mp4
Format : MPEG-4
Format profile : Base Media / Version 2
Codec ID : mp42
File size : 1.32 GiB
Duration : 2h 8mn
Overall bit rate mode : Variable
Overall bit rate : 1 468 Kbps
Encoded date : UTC 2018-03-11 10:02:55
Tagged date : UTC 2018-03-11 10:02:55
gsst : 0
gstd : 7703173
Video
ID : 1
Format : AVC
Format/Info : Advanced Video Codec
Format profile : [email protected]
Format settings, CABAC : Yes
Format settings, ReFrames : 3 frames
Codec ID : avc1
Codec ID/Info : Advanced Video Coding
Duration : 2h 8mn
Bit rate : 1 339 Kbps
Width : 1 280 pixels
Height : 720 pixels
Display aspect ratio : 16:9
Frame rate mode : Constant
Frame rate : 25.000 fps
Color space : YUV
Chroma subsampling : 4:2:0
Bit depth : 8 bits
Scan type : Progressive
Bits/(Pixel*Frame) : 0.058
Stream size : 1.20 GiB (91%)
Title : ISO Media file produced by Google Inc. Created on: 03/11/2018.
Encoded date : UTC 2018-03-11 10:02:55
Tagged date : UTC 2018-03-11 10:02:55
Color primaries : BT.709
Transfer characteristics : BT.709
Matrix coefficients : BT.709
Color range : Limited
Audio
ID : 2
Format : AAC
Format/Info : Advanced Audio Codec
Format profile : LC
Codec ID : 40
Duration : 2h 8mn
Bit rate mode : Variable
Bit rate : 126 Kbps
Channel(s) : 2 channels
Channel positions : Front: L R
Sampling rate : 44.1 KHz
Compression mode : Lossy
Stream size : 115 MiB (9%)
Title : ISO Media file produced by Google Inc. Created on: 03/11/2018.
Encoded date : UTC 2018-03-11 10:02:55
Tagged date : UTC 2018-03-11 10:02:55

Создавать темы 18-Мар-2018 20:38

[Профиль]  [ЛС] 
Показать сообщения:    
Ответить на тему

Текущее время: 16-Авг 19:13

Часовой пояс: UTC + 5



Вы не можете начинать темы
Вы не можете отвечать на сообщения
Вы не можете редактировать свои сообщения
Вы не можете удалять свои сообщения
Вы не можете голосовать в опросах
Вы не можете прикреплять файлы к сообщениям
Вы не можете скачивать файлы