Скачать Селфи (Николай Хомерики) [2017, Триллер, драма, WEB-DL 1080p] iTunes в Тас-икс (Tas-ix)

Ответить на тему
 

farhod ®

Стаж: 8 лет 5 месяцев

Сообщений: 194

Симпатии: 54

Селфи Год выпуска: 2018
Страна: Россия
Жанр: Триллер, драма
Продолжительность: 01:49:51
Перевод: Не требуется
Cубтитры: нет
Режиссер: Николай Хомерики
В ролях: Константин Хабенский, Юлия Хлынина, Фёдор Бондарчук, Анна Михалкова, Северия Янушаускайте, Михаил Мухтасипов, Александра Велескевич, Сергей Бондаренко, Андрей Гринев, Марина Калецкая
Описание: Он полностью копировал его — жесты, мимика, даже шутил так, что никто не заподозрил подмены. Богданов смотрел в экран, как в зеркало. Двойник вел его телепередачу, встречался с его фанатами-читателями, жил с его женщинами, выпивал в баре с его друзьями… Это произошло вмиг — раз — тебя стерли, твою личность, и тут бессильны лучшие психоаналитики. Публичный и успешный, остроумный и циничный, Богданов лишился всего, чего добивался годами, выстраивая свою карьеру и жизнь. И теперь он отчетливо понимал: копия лучше и честнее его самого, битва за себя проиграна. И только дочь хочет вернуть истинного Богданова…
Качество видео: WEB-DL 1080p ( iTunes )
Формат видео: MKV
Видео кодек: H.26x
Видео: 1920x720 at 25.000 fps, MPEG-4 AVC, ~4435 kbps avg
Аудио: Russian 48 kHz, AC3, 3/2 (L,C,R,l,r) + LFE ch, ~384.00 kbps avg

Скриншоты




ОтчетМедиаИнфо

Unique ID : 191126801668639312858655560995106376934 (0x8FC9AEDC6BCE1947AFBC2E674912CCE6)
Complete name : \Selfi.2018.1080p.WEB-DL.Rus.mkv
Format : Matroska
Format version : Version 4 / Version 2
File size : 3.77 GiB
Duration : 1 h 49 min
Overall bit rate : 4 917 kb/s
Movie name : SELFIE_WEB_DL_1080p-BLUEBIRD
Encoded date : UTC 2018-03-18 18:36:03
Writing application : mkvmerge v6.9.1 ('Blue Panther') 32bit built on Apr 18 2014 18:15:44
Writing library : libebml v1.3.0 + libmatroska v1.4.1
Video
ID : 1
Format : AVC
Format/Info : Advanced Video Codec
Format profile : [email protected]
Format settings : CABAC / 5 Ref Frames
Format settings, CABAC : Yes
Format settings, ReFrames : 5 frames
Codec ID : V_MPEG4/ISO/AVC
Duration : 1 h 49 min
Bit rate : 4 435 kb/s
Width : 1 920 pixels
Height : 720 pixels
Display aspect ratio : 2.667
Frame rate mode : Constant
Frame rate : 25.000 FPS
Color space : YUV
Chroma subsampling : 4:2:0
Bit depth : 8 bits
Scan type : Progressive
Bits/(Pixel*Frame) : 0.128
Stream size : 3.40 GiB (90%)
Title : SELFIE_WEB_DL_1080p-BLUEBIRD
Language : English
Default : Yes
Forced : No
Color range : Limited
Color primaries : BT.709
Transfer characteristics : BT.709
Matrix coefficients : BT.709
Audio
ID : 2
Format : AC-3
Format/Info : Audio Coding 3
Codec ID : A_AC3
Duration : 1 h 49 min
Bit rate mode : Constant
Bit rate : 384 kb/s
Channel(s) : 6 channels
Channel positions : Front: L C R, Side: L R, LFE
Sampling rate : 48.0 kHz
Frame rate : 31.250 FPS (1536 SPF)
Bit depth : 16 bits
Compression mode : Lossy
Stream size : 302 MiB (8%)
Title : [ORIGINAL] DD 5.1 @ 384 kbps (iTunes)
Language : Russian
Service kind : Complete Main
Default : Yes
Forced : No
Menu
00:00:00.000 : en:Глава 1
00:08:39.000 : en:Глава 2
00:14:04.040 : en:Глава 3
00:22:09.560 : en:Глава 4
00:26:45.720 : en:Глава 5
00:31:21.800 : en:Глава 6
00:36:19.880 : en:Глава 7
00:42:43.040 : en:Глава 8
00:47:45.320 : en:Глава 9
00:53:22.640 : en:Глава 10
00:58:17.040 : en:Глава 11
01:03:07.560 : en:Глава 12
01:09:49.160 : en:Глава 13
01:15:08.200 : en:Глава 14
01:23:32.960 : en:Глава 15
01:29:31.280 : en:Глава 16
01:33:51.239 : en:Глава 17
01:38:57.959 : en:Глава 18

Создавать темы 20-Мар-2018 22:10

[Профиль]  [ЛС] 
Показать сообщения:    
Ответить на тему

Текущее время: 13-Дек 05:37

Часовой пояс: UTC + 5



Вы не можете начинать темы
Вы не можете отвечать на сообщения
Вы не можете редактировать свои сообщения
Вы не можете удалять свои сообщения
Вы не можете голосовать в опросах
Вы не можете прикреплять файлы к сообщениям
Вы не можете скачивать файлы