Скачать Лёд (Олег Трофим) [2018 г., мелодрама, драма, спорт, WEB-DL 1080p] [iTunes] в Тас-икс (Tas-ix)

Ответить на тему
 

ruhal ®

Стаж: 3 года 8 месяцев

Сообщений: 2039

Симпатии: 2486

Лёд
-Год выпуска: 2018
Страна: Россия
Жанр: мелодрама, драма, спорт
Продолжительность: 01:57:51
Перевод: Не требуется [iTunes]
Субтитры: украинские (Full-length),английские (Full-length)-Режиссер: Олег Трофим-В ролях: Аглая Тарасова (Надя), Диана Енакаева (Надя в детстве), Мария Аронова (Шаталина), Александр Петров (Саша), Милош Бикович (Леонов), Ян Цапник (Сева), Ксения Раппопорт (мама), Ксения Лаврова-Глинка (тетка), Павел Майков (постоянный покупатель), Максим Белбородов (Митя), Ирина Старшенбаум (конкурентка), Андрей Балякин-Описание:
С самого детства Надя верила в чудеса. Она представляла себе, как выходит на лёд под овации публики и танцует свой самый красивый танец. И вот, благодаря вере и упорству, Надя становится знаменитой фигуристкой. Но когда ее мечты о громких победах, красивой жизни и прекрасном принце уже, кажется, готовы исполниться, судьба преподносит ей настоящее испытание. И чтобы его пройти, нужно будет снова, как в детстве, поверить в мечту. Ведь, может быть, победа не всегда должна быть громкой, а прекрасный принц не обязательно передвигается на белом коне?..-Рейтинг:
КиноПоиск: 6.987 (18 106)
IMDb: 7.50 (480)
-Качество: WEB-DL
Формат: MKV
Видео: AVC, 1920x800 (2.40:1), 4438 kbps, 23,976 fps, 0,121 bpp
Аудио: | Русский / AC3 / 5.1 / 48 kHz / 384 kbps / 16 bit
Навигация по главам: есть--

ОтчетМедиаИнфо

General
Unique ID                                : 209976497331105594132989066817766922606 (0x9DF8009C27F31B2898DEFAF5EBEF996E)
Complete name                            : ICE.mkv
Format                                   : Matroska
Format version                           : Version 4 / Version 2
File size                                : 4.05 GiB
Duration                                 : 1 h 57 min
Overall bit rate                         : 4 920 kb/s
Movie name                               : ICE
Encoded date                             : UTC 2018-03-27 18:12:36
Writing application                      : mkvmerge v6.9.1 ('Blue Panther') 32bit built on Apr 18 2014 18:15:44
Writing library                          : libebml v1.3.0 + libmatroska v1.4.1
Video
ID                                       : 1
Format                                   : AVC
Format/Info                              : Advanced Video Codec
Format profile                           : [email protected]
Format settings                          : CABAC / 5 Ref Frames
Format settings, CABAC                   : Yes
Format settings, RefFrames               : 5 frames
Codec ID                                 : V_MPEG4/ISO/AVC
Duration                                 : 1 h 57 min
Bit rate                                 : 4 438 kb/s
Width                                    : 1 920 pixels
Height                                   : 800 pixels
Display aspect ratio                     : 2.40:1
Frame rate mode                          : Constant
Frame rate                               : 23.976 FPS
Color space                              : YUV
Chroma subsampling                       : 4:2:0
Bit depth                                : 8 bits
Scan type                                : Progressive
Bits/(Pixel*Frame)                       : 0.121
Stream size                              : 3.65 GiB (90%)
Title                                    : ICE
Language                                 : English
Default                                  : Yes
Forced                                   : No
Color range                              : Limited
Color primaries                          : BT.709
Transfer characteristics                 : BT.709
Matrix coefficients                      : BT.709
Audio
ID                                       : 2
Format                                   : AC-3
Format/Info                              : Audio Coding 3
Format settings, Endianness              : Big
Codec ID                                 : A_AC3
Duration                                 : 1 h 57 min
Bit rate mode                            : Constant
Bit rate                                 : 384 kb/s
Channel(s)                               : 6 channels
Channel positions                        : Front: L C R, Side: L R, LFE
Sampling rate                            : 48.0 kHz
Frame rate                               : 31.250 FPS (1536 SPF)
Bit depth                                : 16 bits
Compression mode                         : Lossy
Stream size                              : 324 MiB (8%)
Title                                    : [ORIGINAL] DD 5.1 @ 384 kbps (iTunes)
Language                                 : Russian
Service kind                             : Complete Main
Default                                  : Yes
Forced                                   : No
Text #1
ID                                       : 3
Format                                   : UTF-8
Codec ID                                 : S_TEXT/UTF8
Codec ID/Info                            : UTF-8 Plain Text
Title                                    : Full-length
Language                                 : Ukrainian
Default                                  : No
Forced                                   : No
Text #2
ID                                       : 4
Format                                   : UTF-8
Codec ID                                 : S_TEXT/UTF8
Codec ID/Info                            : UTF-8 Plain Text
Title                                    : Full-length
Language                                 : English
Default                                  : No
Forced                                   : No
Menu
00:00:00.000                             : en:1
00:07:48.301                             : en:2
00:13:18.089                             : en:3
00:22:37.606                             : en:4
00:28:37.090                             : en:5
00:37:43.845                             : en:6
00:43:55.716                             : en:7
00:51:19.993                             : en:8
00:56:57.580                             : en:9
01:05:08.279                             : en:10
01:12:38.687                             : en:11
01:20:38.083                             : en:12
01:27:28.243                             : en:13
01:34:14.357                             : en:14
01:42:28.517                             : en:15
01:48:50.357                             : en:16

Создавать темы 28-Мар-2018 05:49

[Профиль]  [ЛС] 
Показать сообщения:    
Ответить на тему

Текущее время: 13-Дек 21:46

Часовой пояс: UTC + 5



Вы не можете начинать темы
Вы не можете отвечать на сообщения
Вы не можете редактировать свои сообщения
Вы не можете удалять свои сообщения
Вы не можете голосовать в опросах
Вы не можете прикреплять файлы к сообщениям
Вы не можете скачивать файлы