Скачать торрент Концерт Государственного хореографического ансамбля "Березка" (Н.Надеждина) [1962, СССР, Народные танцы, WEBRip]

Ответить на тему
 

Astrolog ®

Стаж: 5 лет 11 месяцев

Сообщений: 215

Симпатии: 27

Концерт Государственного хореографического ансамбля "Березка"
Страна: СССР
Жанр: Народные танцы
Год выпуска: 1962
Продолжительность: 01:34:36
Перевод: Не требуется
Cубтитры: нет
Режиссёр: Н.Надеждина
В ролях: -
Описание: Русские народные танцы в исполнении Государственного хореографического ансамбля"Березка". Художественный руководитель - Н.Надеждина
Качество видео: WEBRip
Формат видео: WMV
Видео: Windows Media Video 9 720x576 (4:3) 25fps 571kbps [Raw Video 1]
Аудио: WMA 2 44100Hz mono 20kbps [Raw Audio 0]

MediaInfo

General
Complete name : D:\utorrent\Концерт Государственного хореографического ансамбля Березка.wmv
Format : Windows Media
File size : 407 MiB
Duration : 1 h 34 min
Overall bit rate mode : Variable
Overall bit rate : 602 kb/s
Maximum Overall bit rate : 1 529 kb/s
Encoded date : UTC 2010-01-01 04:05:12.807
Video
ID : 2
Format : VC-1
Format profile : Main
Codec ID : WMV3
Codec ID/Info : Windows Media Video 9
Codec ID/Hint : WMV3
Duration : 1 h 34 min
Bit rate mode : Variable
Bit rate : 571 kb/s
Width : 720 pixels
Height : 576 pixels
Display aspect ratio : 5:4
Frame rate : 25.000 FPS
Standard : PAL
Color space : YUV
Chroma subsampling : 4:2:0
Bit depth : 8 bits
Scan type : Progressive
Compression mode : Lossy
Bits/(Pixel*Frame) : 0.055
Stream size : 386 MiB (95%)
Language : Russian
Audio
ID : 1
Format : WMA
Format version : Version 2
Codec ID : 161
Codec ID/Info : Windows Media Audio
Duration : 1 h 34 min
Bit rate mode : Constant
Bit rate : 20.0 kb/s
Channel(s) : 1 channel
Sampling rate : 44.1 kHz
Bit depth : 16 bits
Stream size : 13.5 MiB (3%)
Language : Russian
Other
Type : Time code
Format : WM TC
Time code of first frame : 00:00:00:00

Скриншоты

Создавать темы 10-Апр-2018 10:37

[Профиль]  [ЛС] 
Показать сообщения:    
Ответить на тему

Текущее время: 25-Май 06:31

Часовой пояс: UTC + 5



Вы не можете начинать темы
Вы не можете отвечать на сообщения
Вы не можете редактировать свои сообщения
Вы не можете удалять свои сообщения
Вы не можете голосовать в опросах
Вы не можете прикреплять файлы к сообщениям
Вы не можете скачивать файлы