Скачать торрент Дикие предки / Early Man (Ник Парк) [2017, Великобритания, Франция, Мультфильм, WEB-DLRip] [Чистый звук]

Ответить на тему
 

ruhal ®

Стаж: 3 года 1 месяц

Сообщений: 1899

Симпатии: 2403

Дикие предки / Early Man

Страна: Великобритания, Франция
Жанр: Мультфильм
Год выпуска: 2017
Продолжительность: 01:26:57
Перевод: Профессиональный (дублированный) [Чистый звук]
Cубтитры: нет
Режиссер: Ник Парк
В ролях: Том Хиддлстон, Эдди Редмэйн, Мэйси Уильямс, Тимоти Сполл, Ричард Айоади, Марк Уильямс, Мириам Марголис, Ник Парк, Роб Брайдон, Кайван Новак
Описание: Каменный век и даже более поздние цивилизации - всё равно дикие предки, но как же они были похожи на нас. У них тоже было слишком много родственников, а мужчины боролись за любимую женщину. Они тоже обожали драгоценности, играли в кожаный мяч, и каждый стремился стать первым...
Качество видео: WEB-DLRip
Формат видео: AVI
Видео: Xvid 720x384 23.976fps 1856kbps
Аудио: Dolby AC3 48000Hz stereo 384kbps

MediaInfo

General
Complete name : E:\Films\Early.Man.2O18.D.WEB-DLRip.14OOMB.avi
Format : AVI
Format/Info : Audio Video Interleave
File size : 1.37 GiB
Duration : 1h 26mn
Overall bit rate : 2 250 Kbps
Writing application : VirtualDubMod 1.5.10.2 (build 2540/release)
Writing library : VirtualDubMod build 2540/release
Video
ID : 0
Format : MPEG-4 Visual
Format profile : Advanced [email protected]
Format settings, BVOP : 2
Format settings, QPel : No
Format settings, GMC : No warppoints
Format settings, Matrix : Default (MPEG)
Codec ID : XVID
Codec ID/Hint : XviD
Duration : 1h 26mn
Bit rate : 1 857 Kbps
Width : 720 pixels
Height : 384 pixels
Display aspect ratio : 1.85:1
Frame rate : 23.976 fps
Color space : YUV
Chroma subsampling : 4:2:0
Bit depth : 8 bits
Scan type : Progressive
Compression mode : Lossy
Bits/(Pixel*Frame) : 0.280
Stream size : 1.13 GiB (83%)
Writing library : XviD 1.2.1 (UTC 2008-12-04)
Audio
ID : 1
Format : AC-3
Format/Info : Audio Coding 3
Mode extension : CM (complete main)
Format settings, Endianness : Big
Codec ID : 2000
Duration : 1h 26mn
Bit rate mode : Constant
Bit rate : 384 Kbps
Channel(s) : 2 channels
Channel positions : Front: L R
Sampling rate : 48.0 KHz
Bit depth : 16 bits
Compression mode : Lossy
Stream size : 239 MiB (17%)
Alignment : Split accross interleaves
Interleave, duration : 42 ms (1.00 video frame)
Interleave, preload duration : 500 ms

Скриншоты



Создавать темы 19-Апр-2018 09:33

[Профиль]  [ЛС] 
Показать сообщения:    
Ответить на тему

Текущее время: 23-Май 08:42

Часовой пояс: UTC + 5



Вы не можете начинать темы
Вы не можете отвечать на сообщения
Вы не можете редактировать свои сообщения
Вы не можете удалять свои сообщения
Вы не можете голосовать в опросах
Вы не можете прикреплять файлы к сообщениям
Вы не можете скачивать файлы