Скачать Петросян-шоу-17. (Эфир 01.09.2017) [2017г., Юмор, SATRip] в Тас-икс (Tas-ix)

Ответить на тему
 

фазилов ®

Стаж: 4 года 6 месяцев

Сообщений: 327

Симпатии: 353

(Эфир 01.09.2017) Год выпуска: 2017
Страна: Россия
Жанр: Юмор
Продолжительность: 1:56:39
Описание:
На телеканале "Россия" - новое яркое юмористическое "Петросян-шоу"! (Старое название передачи- "Кривое зеркало")
Мэтр эстрады выступит в роли не только артиста, но и ведущего программы. На сцене - любимые артисты и новые исполнители.
Именитый и авторитетный юморист, покоривший публику многие десятилетия назад – Евгений Петросян, продолжает радовать аудиторию новыми шутками и номерами. После небольшого перерыва, опытный комик подготовил смешные сценки, в которых некоторые люди смогут узнать себя, своих соседей, родственников или товарищей. «Петросян шоу» - это невероятно смешная и веселая программа, которая поднимет настроение любому. На сцене выступают известные артисты, завоевавшие популярность у миллионов зрителей. Они демонстрируют хорошо известные номера, которые принесли им славу, а также, совершенно новые миниатюры, придуманные недавно. Продюсеры проекта приглашают новичков комедийного жанра, дабы они испытали свои силы в сложной, но интересной профессии. Молодые таланты иначе подходят к созданию своих номеров, предпочитая музыкальные постановки и занимательные монологи. Публике непривычно смотреть на нетипичные выходки комиков, но постепенно, она начинает понимать их шутки, и громко смеяться в зрительском зале.
В этом выпуске:
1. Е.Петросян - Стихи В.Соловьёва
2. Артисты "Петросян-шоу" - Семейный психолог
3. Е.Петросян - Ситуашки-наблюдашки
4. Д.Кузиняткин - Бит-бокс
5. Д.Кузиняткин - Пародия на телемагазин
6. Д.Руднева и С.Ещенко - Народные перепевки
7 .Е.Петросян и А.Буховцов - Юморомер
8. М.Смирнов и А.Буховцов - От зари до зари
9. М.Смирнов - Бдыщ
10.С.Кобликов - Абсолютно нетрезвый
11.Л.Крымова и Н.Бандурин - Женская сумочка
12.А.Егоров - Твари
13.В.Коркина и В.Остроухов - Танечка
14.А.Щеглов - Дети и гаджеты
15.Музыкальные пародии

Тех.данные:
Качество: SATRip
Формат: AVI
Видео кодек: XviD
Аудио кодек: AC3
Видео: 720x400 (1.80:1), 25 fps, XviD build 50 ~ 1798 avg, 0.25 bit/pixel
Аудио: 48 kHz, AC3 Dolby Digital, 2/0 (L,R) ch, ~192 kbps

Mediainfo

Общее
Полное имя : D:\Мои релизы\Петросян-шоу-17 .Эфир 01.09.2017.avi
Формат : AVI
Формат/Информация : Audio Video Interleave
Размер файла : 1,63 Гбайт
Продолжительность : 1 ч. 56 м.
Общий поток : 1999 Кбит/сек
Программа кодирования : VirtualDubModRus 1.5.10.1 (build 2439/release)
Библиотека кодирования : VirtualDubMod build 2439/release
Видео
Идентификатор : 0
Формат : MPEG-4 Visual
Профиль формата : Advanced [email protected]
Параметр BVOP формата : 2
Параметр QPel формата : Нет
Параметр GMC формата : Без точки перехода
Параметр матрицы формата : Default (H.263)
Идентификатор кодека : XVID
Идентификатор кодека/Подсказка : XviD
Продолжительность : 1 ч. 56 м.
Битрейт : 1798 Кбит/сек
Ширина : 720 пикселей
Высота : 400 пикселей
Соотношение сторон : 16:9
Частота кадров : 25,000 кадров/сек
Цветовое пространство : YUV
Субдискретизация насыщенности : 4:2:0
Битовая глубина : 8 бит
Тип развёртки : Прогрессивная
Метод сжатия : С потерями
Бит/(Пиксели*Кадры) : 0.250
Размер потока : 1,46 Гбайт (90%)
Библиотека кодирования : XviD 1.2.1 (UTC 2008-12-04)
Аудио
Идентификатор : 1
Формат : AC-3
Формат/Информация : Audio Coding 3
Расширение режима : CM (complete main)
Параметр Endianness формата : Big
Идентификатор кодека : 2000
Продолжительность : 1 ч. 56 м.
Вид битрейта : Постоянный
Битрейт : 192 Кбит/сек
Каналы : 2 канала
Расположение каналов : Front: L R
Частота : 48,0 КГц
Частота кадров : 31,250 кадров/сек (1536 spf)
Битовая глубина : 16 бит
Метод сжатия : С потерями
Размер потока : 160 Мбайт (10%)
Выравнивание : Разделение по промежуткам
Продолжительность промежутка : 40 мс. (1,00 видеокадр)
Время предзагрузки промежутка : 500 мс.

Скриншоты

Создавать темы 10-Май-2018 09:09

[Профиль]  [ЛС] 
Показать сообщения:    
Ответить на тему

Текущее время: 16-Авг 19:13

Часовой пояс: UTC + 5



Вы не можете начинать темы
Вы не можете отвечать на сообщения
Вы не можете редактировать свои сообщения
Вы не можете удалять свои сообщения
Вы не можете голосовать в опросах
Вы не можете прикреплять файлы к сообщениям
Вы не можете скачивать файлы