Скачать Большой бенефис Игоря Маменко и Сергея Дроботенко (Артём Щадров) [2013, Юмор, SATRip] в Тас-икс (Tas-ix)

Ответить на тему
 

фазилов ®

Стаж: 4 года 9 месяцев

Сообщений: 327

Симпатии: 353

Год выпуска: 2013
Страна: Россия. Телекомпания "Зоголь"
Жанр: Юмор
Продолжительность: 02:21:30
Перевод: Не требуется
Cубтитры: нет
Режиссер: Артём Щадров
В ролях: Игорь Маменко, Сергей Дроботенко и другие.ОписаниеДва веселых артиста дают один большой совместный концерт! С ними не соскучишься! Постоянный участник телепередач «Смехопанорама» и «Аншлаг», лауреат Всероссийского конкурса артистов сатиры и юмора Сергей Дроботенко, чьи по-настоящему острые, актуальные и смешные произведения читает не только он сам, но и многие известные юмористы, по праву заслужил статус одного из самых популярных на сегодняшний день артистов разговорного жанра. Игорь Маменко - человек-анекдот, на его неприкрытый талант юмориста обратила внимание уже вся страна.
Так зажигательно, самобытно и органично рассказывать анекдоты и смешные истории может только он. Неподражаемая мимика и имитация голосов народов дружественных республик не могут никого оставить равнодушным на его концертах. Игорь Маменко заводит зал, как говорится, не успев поздороваться!

Тех.данныеКачество видео: SATRip
Формат видео: AVI
Видео: DivX 5, 704x528, 2100 Kbps, 25.000 fps
Аудио: MP3, 192 Kbps, 2ch, 48.0 Hz

MediaInfo

Общее
Полное имя : D:\Мои релизы\Большой бенефис Игоря Маменко и Сергея Дроботенко.avi
Формат : AVI
Формат/Информация : Audio Video Interleave
Профиль формата : OpenDML
Размер файла : 2,28 Гбайт
Продолжительность : 2 ч. 21 м.
Общий поток : 2304 Кбит/сек
Библиотека кодирования : VirtualDub build 18160/release
Видео
Идентификатор : 0
Формат : MPEG-4 Visual
Параметр BVOP формата : 1
Параметр QPel формата : Нет
Параметр GMC формата : Без точки перехода
Параметр матрицы формата : Default (H.263)
Режим смешивания : Сжатый битовый поток
Идентификатор кодека : DX50
Идентификатор кодека/Подсказка : DivX 5
Продолжительность : 2 ч. 21 м.
Битрейт : 2100 Кбит/сек
Номинальный битрейт : 4854 Кбит/сек
Ширина : 704 пикселя
Высота : 528 пикселей
Соотношение сторон : 4:3
Частота кадров : 25,000 кадров/сек
Цветовое пространство : YUV
Субдискретизация насыщенности : 4:2:0
Битовая глубина : 8 бит
Тип развёртки : Прогрессивная
Метод сжатия : С потерями
Бит/(Пиксели*Кадры) : 0.226
Размер потока : 2,08 Гбайт (91%)
Библиотека кодирования : DivX 3013
Аудио
Идентификатор : 1
Формат : MPEG Audio
Версия формата : Version 1
Профиль формата : Layer 3
Идентификатор кодека : 55
Идентификатор кодека/Подсказка : MP3
Продолжительность : 2 ч. 21 м.
Вид битрейта : Постоянный
Битрейт : 192 Кбит/сек
Каналы : 2 канала
Частота : 48,0 КГц
Метод сжатия : С потерями
Размер потока : 194 Мбайт (8%)
Выравнивание : Разделение по промежуткам
Продолжительность промежутка : 40 мс. (1,00 видеокадр)
Время предзагрузки промежутка : 500 мс.

Создавать темы 03-Июн-2018 09:31

[Профиль]  [ЛС] 

zakir1

Стаж: 5 лет 8 месяцев

Сообщений: 7

Симпатии: 1

Зарегистрирован: 1 день 8 часов. Раздавать будешь или как?

Создавать темы 04-Июн-2018 18:22

[Профиль]  [ЛС] 
Показать сообщения:    
Ответить на тему

Текущее время: 14-Ноя 12:37

Часовой пояс: UTC + 5



Вы не можете начинать темы
Вы не можете отвечать на сообщения
Вы не можете редактировать свои сообщения
Вы не можете удалять свои сообщения
Вы не можете голосовать в опросах
Вы не можете прикреплять файлы к сообщениям
Вы не можете скачивать файлы