Скачать Первому игроку приготовиться / Ready Player One (Стивен Спилберг) [2018, фантастика, боевик, приключения, WEB-DL 1080p] [iTunes] в Тас-икс (Tas-ix)

Ответить на тему
 

ruhal ®

Стаж: 3 года 5 месяцев

Сообщений: 2039

Симпатии: 2486

- -Первому игроку приготовиться / Ready Player One- Год выпуска: 2018
Страна: США
Жанр: фантастика, боевик, приключения
Продолжительность: 02:19:55
Перевод: Дублированный iTunes
Субтитры: русские (Full-length), русские (Forced), украинские (Forced)-Режиссер: Стивен Спилберг / Steven Spielberg-В ролях: Тай Шеридан (Parzival / Wade), Оливия Кук (Art3mis / Samantha), Бен Мендельсон (Sorrento), Лина Уэйте (Aech / Helen), ТиДжей Миллер (I-R0k), Саймон Пегг (Ogden Morrow), Марк Райлэнс (Anorak / Halliday), Филип Чжао (Sho), Уин Морисаки (Daito), Ханна Джон-Кэймен (F'Nale Zandor), Ралф Айнесон (Rick), Сьюзэн Линч (Alice)-Описание:
Действие фильма происходит в 2045 году, мир погружается в хаос и находится на грани коллапса. Люди ищут спасения в игре OASIS - огромной вселенной виртуальной реальности. Ее создатель, гениальный и эксцентричный Джеймс Холлидэй, оставляет уникальное завещание. Все его колоссальное состояние получит игрок, первым обнаруживший цифровое «пасхальное яйцо», которое миллиардер спрятал где-то на просторах OASISа. Запущенный им квест охватывает весь мир. Совершенно негероический парень по имени Уэйд Уоттс решает принять участие в состязании, с головой бросаясь в головокружительную, искажающую реальность погоню за сокровищами по фантастической вселенной, полной загадок, открытий и опасностей.-Рейтинг:

MPAA: PG-13 - Детям до 13 лет просмотр не желателен-Качество: WEB-DL
Формат: MKV
Видео: AVC, 1920x800 (2.40:1), 23,976 fps
Аудио #1: | Русский / AC3 / 5.1 / 48 kHz / 384 kbps / 16 bit
Аудио #2: | Украинский / AAC LC / 2.0 / 44 kHz /
Аудио #3: | Английский / AC3 / 5.1 / 48 kHz / 384 kbps / 16 bit
Навигация по главам: есть-

MI

General
Unique ID                                : 182228497349412685022213838444247390418 (0x8917EE960498F6FE8DF81259556818D2)
Complete name                            : READY_PLAYER_1_2018_WEB_DL_1080p-BLUEBIRD.mkv
Format                                   : Matroska
Format version                           : Version 4 / Version 2
File size                                : 5.36 GiB
Duration                                 : 2 h 19 min
Overall bit rate                         : 5 479 kb/s
Movie name                               : READY_PLAYER_1_2018_WEB_DL_1080p-BLUEBIRD
Encoded date                             : UTC 2018-07-03 18:32:05
Writing application                      : mkvmerge v6.9.1 ('Blue Panther') 32bit built on Apr 18 2014 18:15:44
Writing library                          : libebml v1.3.0 + libmatroska v1.4.1
Video
ID                                       : 1
Format                                   : AVC
Format/Info                              : Advanced Video Codec
Format profile                           : [email protected]
Format settings                          : CABAC / 5 Ref Frames
Format settings, CABAC                   : Yes
Format settings, RefFrames               : 5 frames
Codec ID                                 : V_MPEG4/ISO/AVC
Duration                                 : 2 h 19 min
Width                                    : 1 920 pixels
Height                                   : 800 pixels
Display aspect ratio                     : 2.40:1
Frame rate mode                          : Constant
Frame rate                               : 23.976 (24000/1001) FPS
Color space                              : YUV
Chroma subsampling                       : 4:2:0
Bit depth                                : 8 bits
Scan type                                : Progressive
Title                                    : READY_PLAYER_1_2018_WEB_DL_1080p-BLUEBIRD
Language                                 : English
Default                                  : Yes
Forced                                   : No
Color range                              : Limited
Color primaries                          : BT.709
Transfer characteristics                 : BT.709
Matrix coefficients                      : BT.709
Audio #1
ID                                       : 2
Format                                   : AC-3
Format/Info                              : Audio Coding 3
Format settings, Endianness              : Big
Codec ID                                 : A_AC3
Duration                                 : 2 h 19 min
Bit rate mode                            : Constant
Bit rate                                 : 384 kb/s
Channel(s)                               : 6 channels
Channel positions                        : Front: L C R, Side: L R, LFE
Sampling rate                            : 48.0 kHz
Frame rate                               : 31.250 FPS (1536 SPF)
Bit depth                                : 16 bits
Compression mode                         : Lossy
Delay relative to video                  : -42 ms
Stream size                              : 384 MiB (7%)
Title                                    : [DUB] DD 5.1 @ 384 kbps (iTunes)
Language                                 : Russian
Service kind                             : Complete Main
Default                                  : No
Forced                                   : No
Audio #2
ID                                       : 3
Format                                   : AAC
Format/Info                              : Advanced Audio Codec
Format profile                           : LC
Codec ID                                 : A_AAC-2
Duration                                 : 2 h 19 min
Channel(s)                               : 2 channels
Channel positions                        : Front: L R
Sampling rate                            : 44.1 kHz
Frame rate                               : 43.066 FPS (1024 SPF)
Compression mode                         : Lossy
Delay relative to video                  : -42 ms
Title                                    : [DUB] AAC 2.0 @ 160 kbps
Language                                 : Ukrainian
Default                                  : No
Forced                                   : No
Audio #3
ID                                       : 4
Format                                   : AC-3
Format/Info                              : Audio Coding 3
Format settings, Endianness              : Big
Codec ID                                 : A_AC3
Duration                                 : 2 h 19 min
Bit rate mode                            : Constant
Bit rate                                 : 384 kb/s
Channel(s)                               : 6 channels
Channel positions                        : Front: L C R, Side: L R, LFE
Sampling rate                            : 48.0 kHz
Frame rate                               : 31.250 FPS (1536 SPF)
Bit depth                                : 16 bits
Compression mode                         : Lossy
Delay relative to video                  : -42 ms
Stream size                              : 384 MiB (7%)
Title                                    : [ORIGINAL] DD 5.1 @ 384 kbps (iTunes)
Language                                 : English
Service kind                             : Complete Main
Default                                  : No
Forced                                   : No
Text #1
ID                                       : 5
Format                                   : UTF-8
Codec ID                                 : S_TEXT/UTF8
Codec ID/Info                            : UTF-8 Plain Text
Title                                    : Full-length
Language                                 : Russian
Default                                  : No
Forced                                   : No
Text #2
ID                                       : 6
Format                                   : UTF-8
Codec ID                                 : S_TEXT/UTF8
Codec ID/Info                            : UTF-8 Plain Text
Title                                    : Forced
Language                                 : Russian
Default                                  : Yes
Forced                                   : No
Text #3
ID                                       : 7
Format                                   : UTF-8
Codec ID                                 : S_TEXT/UTF8
Codec ID/Info                            : UTF-8 Plain Text
Title                                    : Forced
Language                                 : Ukrainian
Default                                  : No
Forced                                   : No
Menu
00:00:00.000                             : en:1
00:10:08.000                             : en:2
00:20:17.000                             : en:3
00:30:37.000                             : en:4
00:40:38.000                             : en:5
00:50:08.000                             : en:6
01:03:01.000                             : en:7
01:11:55.000                             : en:8
01:20:14.000                             : en:9
01:30:57.000                             : en:10
01:43:26.000                             : en:11
01:53:02.000                             : en:12
02:04:20.000                             : en:13
02:09:16.000                             : en:14

Создавать темы 04-Июл-2018 11:38

[Профиль]  [ЛС] 
Показать сообщения:    
Ответить на тему

Текущее время: 23-Сен 16:12

Часовой пояс: UTC + 5



Вы не можете начинать темы
Вы не можете отвечать на сообщения
Вы не можете редактировать свои сообщения
Вы не можете удалять свои сообщения
Вы не можете голосовать в опросах
Вы не можете прикреплять файлы к сообщениям
Вы не можете скачивать файлы