Скачать Sпарта 1 Сезон / Cерии 1-3 из 8 (Егор Баранов) [2018 г., детектив, драма, HDTVRip 720p] в Тас-икс (Tas-ix)

Ответить на тему
 

big boss ®

Стаж: 1 год 9 месяцев

Сообщений: 648

Симпатии: 238

Sпарта- Год выпуска: 2018
Страна: Россия
Жанр: детектив, драма
Продолжительность: ~ 00:45:00-Режиссер: Егор Баранов-В ролях: Валерия Шкирандо, Алиса Лозовская, Ян Гахарманов, Ольга Сутулова, Филипп Горенштейн, Артем Ткаченко, Александр Петров, Роман Агеев, Оксана Базилевич, Михаил Грубов-Описание: Современная молодежь на столько увлечена виртуальным миром, в котором доступно абсолютно все - жестокость, насилие и безнаказанность, - что потеряла грани реальности. В одной из школ появилась новая игра - Sпарта. Она объединяет в себе все то, с чем сталкиваются дети в компьютерных играх. Вот только у игроков всего одна жизнь - реальная...-Качество: HDTVRip 720p
Формат: MKV-Видео: MPEG-4 AVC, ~ 3500 Кбит/с, 1280x720, 25 fps
Аудио: Русский (AC3, 2 ch, 192 Кбит/с)-

MediaInfo

General
Unique ID : 184532915566042438572423271808246071389 (0x8AD3BF2D10631EB79A0A539C9121C05D)
Complete name : D:\Torrent\Не трогать\Sпарта.HDTVRip.(720p).GeneralFilm\01.Sпарта.HDTVRip.(720p).GeneralFilm.mkv
Format : Matroska
Format version : Version 2
File size : 1.38 GiB
Duration : 53 min 18 s
Overall bit rate : 3 694 kb/s
Encoded date : UTC 2018-07-09 19:46:14
Writing application : mkvmerge v6.1.0 ('Old Devil') built on Mar 4 2013 09:10:42
Writing library : libebml v1.3.0 + libmatroska v1.4.0
Video
ID : 1
Format : AVC
Format/Info : Advanced Video Codec
Format profile : [email protected]
Format settings, CABAC : Yes
Format settings, RefFrames : 9 frames
Codec ID : V_MPEG4/ISO/AVC
Duration : 53 min 18 s
Bit rate : 3 500 kb/s
Width : 1 280 pixels
Height : 720 pixels
Display aspect ratio : 16:9
Frame rate mode : Constant
Frame rate : 25.000 FPS
Color space : YUV
Chroma subsampling : 4:2:0
Bit depth : 8 bits
Scan type : Progressive
Bits/(Pixel*Frame) : 0.152
Stream size : 1.28 GiB (93%)
Writing library : x264 core 130 r2273 b3065e6
Encoding settings : cabac=1 / ref=9 / deblock=1:-2:-1 / analyse=0x3:0x133 / me=umh / subme=9 / psy=1 / psy_rd=1.00:0.15 / mixed_ref=1 / me_range=32 / chroma_me=1 / trellis=2 / 8x8dct=1 / cqm=0 / deadzone=21,11 / fast_pskip=0 / chroma_qp_offset=-3 / threads=18 / lookahead_threads=3 / sliced_threads=0 / nr=0 / decimate=0 / interlaced=0 / bluray_compat=0 / constrained_intra=0 / bframes=9 / b_pyramid=2 / b_adapt=2 / b_bias=0 / direct=3 / weightb=1 / open_gop=0 / weightp=2 / keyint=250 / keyint_min=25 / scenecut=40 / intra_refresh=0 / rc=2pass / mbtree=0 / bitrate=3500 / ratetol=1.0 / qcomp=0.60 / qpmin=0 / qpmax=69 / qpstep=4 / cplxblur=20.0 / qblur=0.5 / ip_ratio=1.40 / pb_ratio=1.30 / aq=2:1.00
Default : Yes
Forced : No
Color range : Limited
Color primaries : BT.709
Transfer characteristics : BT.709
Matrix coefficients : BT.709
Audio
ID : 2
Format : AC-3
Format/Info : Audio Coding 3
Format settings, Endianness : Big
Codec ID : A_AC3
Duration : 53 min 18 s
Bit rate mode : Constant
Bit rate : 192 kb/s
Channel(s) : 2 channels
Channel positions : Front: L R
Sampling rate : 48.0 kHz
Frame rate : 31.250 FPS (1536 SPF)
Bit depth : 16 bits
Compression mode : Lossy
Stream size : 73.2 MiB (5%)
Service kind : Complete Main
Default : Yes
Forced : No
-
Добавлено: 2 / 3 серия
Обновите Torrent

Создавать темы 10-Июл-2018 04:25

[Профиль]  [ЛС] 
Показать сообщения:    
Ответить на тему

Текущее время: 20-Окт 12:30

Часовой пояс: UTC + 5



Вы не можете начинать темы
Вы не можете отвечать на сообщения
Вы не можете редактировать свои сообщения
Вы не можете удалять свои сообщения
Вы не можете голосовать в опросах
Вы не можете прикреплять файлы к сообщениям
Вы не можете скачивать файлы