Скачать Атлантический рубеж 2 / Atlantic Rim: Resurrection (Джаред Кон) [2018, боевик, фантастика, HDRip P] - GreenРай Studio в Тас-икс (Tas-ix)

Ответить на тему
 

big boss ®

Стаж: 1 год 11 месяцев

Сообщений: 648

Симпатии: 238

Атлантический рубеж 2 / Atlantic Rim: Resurrection - Год выпуска: 2018
Страна: США
Жанр: боевик, фантастика
Продолжительность: 01:26:41-Перевод: Профессиональный (многоголосый) - GreenРай Studio (Присутствует реклама)
Cубтитры: нет
Режиссер: Джаред Кон-В ролях: Линдсей Илстон, Пол Логан, Сэмм Вичек, Стив Ричард Харрис, Дженна Эннс, Ричард Ликок, Терри Вудберри, Хави Израэль, Йос Дикон, Майкл Марсель-Описание: Огромные биомеханические монстры спускаются на землю, готовые уничтожить весь город Лос-Анджелес. Сформированная новая команда пилотов с названием «М-бот» берет в руки управление своими роботами-воинами и пытается спасти мир от полного истребления инопланетянами.-Качество видео: HDRip
Формат видео: AVI-Видео: AVI, 1800 Кбит/с, 720x400
Аудио: Русский (AC3, 2 ch, 448 Кбит/с)-

MediaInfo

General
Complete name : D:\Torrent\Не трогать\Atlantic.Rim.2.2018.P.HDRip.1400MB.avi
Format : AVI
Format/Info : Audio Video Interleave
File size : 1.37 GiB
Duration : 1 h 26 min
Overall bit rate : 2 257 kb/s
Writing application : VirtualDubMod 1.5.10.2 (build 2540/release)
Writing library : VirtualDubMod build 2540/release
Video
ID : 0
Format : MPEG-4 Visual
Format profile : Advanced [email protected]
Format settings, BVOP : 2
Format settings, QPel : No
Format settings, GMC : No warppoints
Format settings, Matrix : Default (MPEG)
Codec ID : XVID
Codec ID/Hint : XviD
Duration : 1 h 26 min
Bit rate : 1 800 kb/s
Width : 720 pixels
Height : 400 pixels
Display aspect ratio : 16:9
Frame rate : 23.976 (24000/1001) FPS
Color space : YUV
Chroma subsampling : 4:2:0
Bit depth : 8 bits
Scan type : Progressive
Compression mode : Lossy
Bits/(Pixel*Frame) : 0.261
Stream size : 1.09 GiB (80%)
Writing library : XviD 1.2.1 (UTC 2008-12-04)
Audio
ID : 1
Format : AC-3
Format/Info : Audio Coding 3
Format settings, Endianness : Big
Codec ID : 2000
Duration : 1 h 26 min
Bit rate mode : Constant
Bit rate : 448 kb/s
Channel(s) : 2 channels
Channel positions : Front: L R
Sampling rate : 48.0 kHz
Frame rate : 31.250 FPS (1536 SPF)
Bit depth : 16 bits
Compression mode : Lossy
Stream size : 278 MiB (20%)
Alignment : Split accross interleaves
Interleave, duration : 42 ms (1.00 video frame)
Interleave, preload duration : 500 ms
Service kind : Complete Main

Создавать темы 12-Июл-2018 13:39

[Профиль]  [ЛС] 

cima

Стаж: 1 год 8 месяцев

Сообщений: 3

Создавать темы 25-Окт-2018 02:19

[Профиль]  [ЛС] 
Показать сообщения:    
Ответить на тему

Текущее время: 13-Дек 21:45

Часовой пояс: UTC + 5



Вы не можете начинать темы
Вы не можете отвечать на сообщения
Вы не можете редактировать свои сообщения
Вы не можете удалять свои сообщения
Вы не можете голосовать в опросах
Вы не можете прикреплять файлы к сообщениям
Вы не можете скачивать файлы