Скачать Танки (Ким Дружинин) [2018, Россия, приключения, история, военный, BDRip] [iTunes] в Тас-икс (Tas-ix)

Ответить на тему
 

zafar87 ®

Стаж: 1 год 8 месяцев

Сообщений: 6


-Танки - Год выпуска: 2018
Страна: Россия
Жанр: приключения, история, военный
Продолжительность: 01:33:05-Перевод: не требуется iTunes
Cубтитры: нет-Режиссер: Ким Дружинин-В ролях: Мераб Майсурадзе, Николай Горшков, Юрий Ицков, Дмитрий Поднозов, Сергей Четвертков, Алексей Овсянников, Андрей Мерзликин, Аглая Тарасова, Александр Тютин, Сергей Стукалов, Антон Филипенко-Описание: На пороге войны с фашистской Германией инженер Михаил Кошкин разрабатывает прототип нового инновационного танка Т-34. Чтобы доказать уникальность боевой машины, Кошкин и его команда отправляются в Москву на танках своим ходом. Но вскоре пробег превращается в непредсказуемую гонку, где бездорожье лишь меньшее из зол… Пройдя череду опасных приключений и благодаря безупречным техническим и боевым качествам новых танков, героям удается одержать верх над преследователями и доказать превосходство Т-34.-Качество видео: BDRip
Формат видео: AVI
Видео: XviD, 1783 Kb/s, 720x320
Аудио: AC3, 6 ch, 448 Кбит/с-

MediaInfo

General
Complete name : D:\Old computer\!\TankiBDRipAVI.avi
Format : AVI
Format/Info : Audio Video Interleave
File size : 1.46 GiB
Duration : 1 h 33 min
Overall bit rate : 2 240 kb/s
Writing library : VirtualDub build 35491/release
Video
ID : 0
Format : MPEG-4 Visual
Format profile : Advanced [email protected]
Format settings : BVOP2 / Custom Matrix
Format settings, BVOP : 2
Format settings, QPel : No
Format settings, GMC : No warppoints
Format settings, Matrix : Custom
Codec ID : XVID
Codec ID/Hint : XviD
Duration : 1 h 33 min
Bit rate : 1 783 kb/s
Width : 720 pixels
Height : 320 pixels
Display aspect ratio : 2.25:1
Frame rate : 24.000 FPS
Color space : YUV
Chroma subsampling : 4:2:0
Bit depth : 8 bits
Scan type : Progressive
Compression mode : Lossy
Bits/(Pixel*Frame) : 0.322
Stream size : 1.16 GiB (80%)
Writing library : XviD 67
Audio
ID : 1
Format : AC-3
Format/Info : Audio Coding 3
Codec ID : 2000
Duration : 1 h 33 min
Bit rate mode : Constant
Bit rate : 448 kb/s
Channel(s) : 6 channels
Channel positions : Front: L C R, Side: L R, LFE
Sampling rate : 48.0 kHz
Frame rate : 31.250 FPS (1536 SPF)
Bit depth : 16 bits
Compression mode : Lossy
Stream size : 298 MiB (20%)
Alignment : Aligned on interleaves
Interleave, duration : 42 ms (1.00 video frame)
Interleave, preload duratio : 512 ms
Service kind : Complete Main

Создавать темы 19-Июл-2018 10:19

[Профиль]  [ЛС] 

Топик был перенесен из форума Фильмы за 2018 в форум Фильмы за 2018
ruhal

Создавать темы 20-Июл-2018 11:05

 
Показать сообщения:    
Ответить на тему

Текущее время: 20-Авг 09:37

Часовой пояс: UTC + 5



Вы не можете начинать темы
Вы не можете отвечать на сообщения
Вы не можете редактировать свои сообщения
Вы не можете удалять свои сообщения
Вы не можете голосовать в опросах
Вы не можете прикреплять файлы к сообщениям
Вы не можете скачивать файлы