Гадкий я / Despicable Me (Пьер Соффин, Крис Рено) [2010 г., Комедия, семейный, мультфильм, DVDRip]

Ответить на тему
 

nigga22480 ®

Стаж: 7 лет 3 месяца

Сообщений: 211

Симпатии: 13

Гадкий я
Despicable Me
- Год выпуска: 2010
Страна: США
Жанр: Комедия, семейный, мультфильм
Продолжительность: 01:30:51
Перевод: Профессиональный (многоголосый, закадровый)
-Режиссер: Пьер Соффин, Крис Рено
В ролях: Роли дублировали: Леонид Ярмольник, Марк Тишман,
Лиза Мартиросова, Дмитрий Курта
-Описание: Гадкий снаружи, но добрый внутри Грю намерен, тем не менее, закрепить за собой статус главного архизлодея в мире, для чего он решает выкрасть Луну при помощи созданной им армии миньонов. Дело осложняют конкуренты, вставляющие высокотехнические палки в колеса, и семейные обстоятельства в виде трех сироток, о которых Грю вынужден заботиться.- -Качество: DVDRip
Формат: AVI
Видео кодек: XviD
Аудио кодек: MP3
Видео: AVI, XviD, 898 Кбит/с, 624x336
Аудио: MP3, 44100 Гц, 2 channels, 160 kbit/s
-

Медиа Инфо

E:\Video\Gadkij.ja.2010.XviD.DVDRip.avi
General
Complete name : E:\Video\Gadkij.ja.2010.XviD.DVDRip.avi
Format : AVI
Format/Info : Audio Video Interleave
File size : 694 MiB
Duration : 1h 30mn
Overall bit rate : 1 068 Kbps
Writing application : VirtualDubMod 1.5.10.2 (build 2542/release)
Writing library : VirtualDubMod build 2542/release
Video #0
ID : 0
Format : MPEG-4 Visual
Format profile : [email protected]
Format settings, BVOP : Yes
Format settings, QPel : No
Format settings, GMC : No warppoints
Format settings, Matrix : Default (H.263)
Muxing mode : Packed bitstream
Codec ID : XVID
Codec ID/Hint : XviD
Duration : 1h 30mn
Bit rate : 899 Kbps
Width : 624 pixels
Height : 336 pixels
Display aspect ratio : 1.857
Frame rate : 25.000 fps
Color space : YUV
Chroma subsampling : 4:2:0
Bit depth : 8 bits
Scan type : Progressive
Bits/(Pixel*Frame) : 0.171
Stream size : 584 MiB (84%)
Writing library : XviD 1.0.3 (UTC 2004-12-20)
Audio #1
ID : 1
Format : MPEG Audio
Format version : Version 1
Format profile : Layer 3
Codec ID : 55
Codec ID/Hint : MP3
Duration : 1h 30mn
Bit rate mode : Constant
Bit rate : 160 Kbps
Channel(s) : 2 channels
Sampling rate : 48.0 KHz
Stream size : 104 MiB (15%)
Alignment : Aligned on interleaves
Interleave, duration : 40 ms (1.00 video frame)
Interleave, preload duration : 504 ms

Скриншоты


Создавать темы 26-Ноя-2010 22:16

[Профиль]  [ЛС] 

nigga22480 ®

Стаж: 7 лет 3 месяца

Сообщений: 211

Симпатии: 13

Мультик ващще улёт, всем советую смотреть)))

Создавать темы 26-Ноя-2010 22:30

[Профиль]  [ЛС] 

Barcelona

Стаж: 6 лет 9 месяцев

Сообщений: 16

Дубляж? лицензия?

Создавать темы 26-Ноя-2010 22:44

[Профиль]  [ЛС] 

Nevermind

Стаж: 7 лет 1 месяц

Сообщений: 123

Симпатии: 4

Не дубляж увы...

Создавать темы 26-Ноя-2010 22:51

[Профиль]  [ЛС] 

nigga22480 ®

Стаж: 7 лет 3 месяца

Сообщений: 211

Симпатии: 13

Barcelona многолосый, но не с камрипа!!!

Создавать темы 26-Ноя-2010 22:55

[Профиль]  [ЛС] 

Nevermind

Стаж: 7 лет 1 месяц

Сообщений: 123

Симпатии: 4

Дубляж ближе к НГ будет, тогда много премьер будет, прокатчики будут кассу делать

Создавать темы 26-Ноя-2010 23:16

[Профиль]  [ЛС] 

nigga22480 ®

Стаж: 7 лет 3 месяца

Сообщений: 211

Симпатии: 13

Nevermind я тока что посмотрел мультик, звук тоже ничё. Но мультик ващще улёт, помоему самый лучшый мультик который я смотрел!!!

Создавать темы 26-Ноя-2010 23:19

[Профиль]  [ЛС] 

nord

Стаж: 7 лет 2 месяца

Сообщений: 65

Симпатии: 1

скачал 59 метров и сид свалил )) весело)

Создавать темы 27-Ноя-2010 00:20

[Профиль]  [ЛС] 

Nevermind

Стаж: 7 лет 1 месяц

Сообщений: 123

Симпатии: 4

Nevermind я тока что посмотрел мультик, звук тоже ничё. Но мультик ващще улёт, помоему самый лучшый мультик который я смотрел!!!
сделал рекламу и съепался....... aq
Выражаетесь, товарищ модератор )


Последний раз редактировалось: Nevermind (2010-11-27 09:21), всего редактировалось 2 раз(а)

Создавать темы 27-Ноя-2010 02:38

[Профиль]  [ЛС] 

nigga22480 ®

Стаж: 7 лет 3 месяца

Сообщений: 211

Симпатии: 13

basma4 Здесь нет ни какой реклама, я просто сказал правду. Я не сказал что понравиться всем, я сказал мне очь нраился! Если я что то сказал не так прощу прошения!!!

Создавать темы 27-Ноя-2010 07:52

[Профиль]  [ЛС] 

Suxrob89

Стаж: 7 лет

Сообщений: 933

Симпатии: 564

сделайте золотой раздачей модераторы

Создавать темы 29-Ноя-2010 17:31

[Профиль]  [ЛС] 

Nero

Стаж: 7 лет

Сообщений: 66

Давно искал в качестве спасибо

Создавать темы 01-Дек-2010 16:28

[Профиль]  [ЛС] 

Топик был перенесен из форума Новинки (2010) в форум Мультфильмы

ziyod

Создавать темы 01-Дек-2010 16:40

 
Показать сообщения:    
Ответить на тему

Текущее время: 17-Авг 20:41

Часовой пояс: UTC + 5



Вы не можете начинать темы
Вы не можете отвечать на сообщения
Вы не можете редактировать свои сообщения
Вы не можете удалять свои сообщения
Вы не можете голосовать в опросах
Вы не можете прикреплять файлы к сообщениям
Вы не можете скачивать файлы