Мумия: Трилогия / The Mummy: Trilogy (Стивен Соммерс, Роб Коэн) [1999/2001/2008 гг. / Боевик, триллер, фэнтези, приключения / BDRip 720p]

Страницы :  1, 2, 3  След.

Ответить на тему
 

basma4 ®

Стаж: 7 лет 11 месяцев

Сообщений: 74

Симпатии: 19

Мумия: Трилогия / The Mummy: Trilogy1999/2001/2008 гг.
(Боевик, триллер, фэнтези, приключения, BDRip 720p)
- Страны: США, Германия
Студии: Alphaville Films, Imhotep Productions, Universal Pictures
Продолжительность: 02:04:45, 02:09:31, 01:51:40
Перевод: Дублированный / Профессиональный многоголосый

Режиссеры: Стивен Соммерс, Роб Коэн
В ролях: Брендан Фрейзер, Рэйчел Вайс, Джон Ханна, Арнольд Вослоу, Кевин Дж. О`Коннор, Одед Фер, Джонатан Хайд, Эрик Авари, Бернард Фокс, Стивен Данхэм, Кори Джонсон, Омид Джалили, Аарон Ипале, Патрисия Веласкес, Карл Чейз, Мэйсон Болл, Изобель Брук, Двэйн Джонсон, Фредди Боат, Алан Армстронг, Адевале Акиннуойе-Агбадже, Шон Паркес, Брюс Байрон, Джо Диксон, Том Фишер, Куилл Робертс, Донна Эйр, Тревор Ловелл, Брайан Бест, Макс Кавалера, Стивен Соммерс, Джет Ли, Мария Белло, Мишель Йео, Люк Форд, Изабелла Люн, Энтони Вонг Чау-Санг, Расселл Вонг, Лайам Каннингэм, Дэвид Калдер, Тиан Лианг, Альберт Кван, Джеки Ву, Гуо Джин, Хелен Фенг
Мумия

Мумия возвращается

Мумия: Гробница Императора Драконов

-
Мумия О Фильме : На бескрайних просторах египетской пустыни компания сорвиголов разных национальностей рыщет в поисках несметных сокровищ фараона, над которыми тяготеет жуткое древнее проклятие. Рядом с кладом покоится мумия коварного жреца, жестоко казненного за ужасное убийство могущественного правителя Египта. Золотоискатели потревожили многовековой покой гробницы, и мумия встает из могилы, чтобы погрузить мир в царство кошмара…Формат: MKV
Качество: BDRip
Видео: MPEG4 Video(H264), 1280x544, AVC, 2127 Кбит/сек 23,976 кадр/сек
Звук: Dolby AC3 48000Hz 6ch 384 Кбит/сек
Размер: 2,18 ГБ

Кадры из фильма



Медиа инфо

Format : Matroska
File size : 2.18 GiB
Duration : 2h 4mn
Overall bit rate : 2 502 Kbps
Encoded date : UTC 2010-10-10 09:40:18
Writing application : mkvmerge v4.0.0 ('The Stars were mine') збірка від Jun 6 2010 16:18:42
Writing library : libebml v1.0.0 + libmatroska v1.0.0
Video #2
ID : 2
Format : AVC
Format/Info : Advanced Video Codec
Format profile : [email protected].1
Format settings, CABAC : Yes
Format settings, ReFrames : 3 frames
Muxing mode : Container [email protected]
Codec ID : V_MPEG4/ISO/AVC
Duration : 2h 4mn
Bit rate : 2 069 Kbps
Nominal bit rate : 2 127 Kbps
Width : 1 280 pixels
Height : 544 pixels
Display aspect ratio : 2.35:1
Frame rate : 23.976 fps
Resolution : 24 bits
Colorimetry : 4:2:0
Scan type : Progressive
Bits/(Pixel*Frame) : 0.124
Stream size : 1.80 GiB (83%)
Writing library : x264 core 105 r1732 2b04482
Audio #1
ID : 1
Format : AC-3
Format/Info : Audio Coding 3
Codec ID : A_AC3
Duration : 2h 4mn
Bit rate mode : Constant
Bit rate : 384 Kbps
Channel(s) : 6 channels
Channel positions : Front: L C R, Surround: L R, LFE
Sampling rate : 48.0 KHz
Stream size : 343 MiB (15%)
Title : Многоголоска "ПремьерВидеоФильм"
Language : Russian
Text #3
ID : 3
Format : UTF-8
Codec ID : S_TEXT/UTF8
Codec ID/Info : UTF-8 Plain Text
Language : Russian
Text #4
ID : 4
Format : UTF-8
Codec ID : S_TEXT/UTF8
Codec ID/Info : UTF-8 Plain Text
Text #5
ID : 5
Format : ASS
Codec ID : S_TEXT/ASS
Codec ID/Info : Advanced Sub Station Alpha
Language : Dutch
Text #6
ID : 6
Format : ASS
Codec ID : S_TEXT/ASS
Codec ID/Info : Advanced Sub Station Alpha
Language : Finnish
Text #7
ID : 7
Format : ASS
Codec ID : S_TEXT/ASS
Codec ID/Info : Advanced Sub Station Alpha
Language : French
Text #8
ID : 8
Format : ASS
Codec ID : S_TEXT/ASS
Codec ID/Info : Advanced Sub Station Alpha
Language : German
Text #9
ID : 9
Format : ASS
Codec ID : S_TEXT/ASS
Codec ID/Info : Advanced Sub Station Alpha
Language : Norwegian
Text #10
ID : 10
Format : UTF-8
Codec ID : S_TEXT/UTF8
Codec ID/Info : UTF-8 Plain Text
Language : Portuguese
Text #11
ID : 11
Format : UTF-8
Codec ID : S_TEXT/UTF8
Codec ID/Info : UTF-8 Plain Text
Language : Spanish
Text #12
ID : 12
Format : ASS
Codec ID : S_TEXT/ASS
Codec ID/Info : Advanced Sub Station Alpha
Language : Swedish

-
Мумия возвращаетсяО Фильме : Прошло десять лет… Наш отважный герой, искатель приключений Рик О`Конелл, теперь богат, счастливо женат на прекрасной Эвелин и воспитывает своего восьмилетнего сына Алекса. Но злой рок не дает очаровательной семье О`Конеллов насладиться спокойной жизнью. Зловещий жрец Имхотеп снова восстал из мертвых! Теперь у Рика, Эвелин и малютки Алекса есть всего семь дней, чтобы спасти мир…Формат: MKV
Качество: BDRip
Видео: MPEG4 Video(H264), 1280x544, AVC, 1966 Кбит/сек, 23,976 кадр/сек
Звук: Dolby AC3 48000Hz 6ch 448 Кбит/сек
Размер: 2,18 ГБ

Кадры из фильма



Медиа инфо

Format : Matroska
File size : 2.18 GiB
Duration : 2h 9mn
Overall bit rate : 2 406 Kbps
Encoded date : UTC 2010-10-10 21:02:55
Writing application : mkvmerge v4.0.0 ('The Stars were mine') збірка від Jun 6 2010 16:18:42
Writing library : libebml v1.0.0 + libmatroska v1.0.0
Video #2
ID : 2
Format : AVC
Format/Info : Advanced Video Codec
Format profile : [email protected]
Format settings, CABAC : Yes
Format settings, ReFrames : 3 frames
Muxing mode : Container [email protected]
Codec ID : V_MPEG4/ISO/AVC
Duration : 2h 9mn
Bit rate : 1 910 Kbps
Nominal bit rate : 1 966 Kbps
Width : 1 280 pixels
Height : 544 pixels
Display aspect ratio : 2.35:1
Frame rate : 23.976 fps
Resolution : 24 bits
Colorimetry : 4:2:0
Scan type : Progressive
Bits/(Pixel*Frame) : 0.114
Stream size : 1.73 GiB (79%)
Writing library : x264 core 105 r1732 2b04482
Audio #1
ID : 1
Format : AC-3
Format/Info : Audio Coding 3
Codec ID : A_AC3
Duration : 2h 9mn
Bit rate mode : Constant
Bit rate : 448 Kbps
Channel(s) : 6 channels
Channel positions : Front: L C R, Surround: L R, LFE
Sampling rate : 48.0 KHz
Stream size : 415 MiB (19%)
Title : Дубляж
Language : Russian

-
Мумия: Гробница Императора Драконов О Фильме : Заколдованный волшебницей, безжалостный китайский император-дракон должен провести вечность в забвении. Его 10 000 воинов превратились в терракотовых воинов. Однако когда искатель приключений Алекс О`Коннелл случайно пробуждает властителя от вечной спячки, он вынужден искать помощи у единственных людей, которые знают, как справиться с воскресшими мертвецами: у своих родителей. Монарх возвращается к жизни, и наши герои понимают, что его сила за эту тысячу лет только увеличилась. Мумия готова поднять всю Азию в борьбе за мировое господство… если О`Коннеллы ее не остановят.Формат: MKV
Качество: BDRip
Видео: AVC, 1280x528 , 2428 Кбит/сек? 23,976 кадр/сек
Звук: AC-3, 48.0 KHz, 6 ch, 384 Кбит/сек
Размер: 2.18 GB

Кадры из фильма



Медиа инфо

Format : Matroska
File size : 2.18 GiB
Duration : 1h 51mn
Overall bit rate : 2 793 Kbps
Encoded date : UTC 2010-10-14 16:45:34
Writing application : mkvmerge v4.0.0 ('The Stars were mine') збірка від Jun 6 2010 16:18:42
Writing library : libebml v1.0.0 + libmatroska v1.0.0
Cover : Yes
Video #2
ID : 2
Format : AVC
Format/Info : Advanced Video Codec
Format profile : [email protected]
Format settings, CABAC : Yes
Format settings, ReFrames : 3 frames
Muxing mode : Container [email protected]
Codec ID : V_MPEG4/ISO/AVC
Duration : 1h 51mn
Bit rate : 2 354 Kbps
Nominal bit rate : 2 428 Kbps
Width : 1 280 pixels
Height : 528 pixels
Display aspect ratio : 2.40:1
Frame rate : 23.976 fps
Resolution : 24 bits
Colorimetry : 4:2:0
Scan type : Progressive
Bits/(Pixel*Frame) : 0.145
Stream size : 1.83 GiB (84%)
Writing library : x264 core 105 r1732 2b04482
Audio #1
ID : 1
Format : AC-3
Format/Info : Audio Coding 3
Codec ID : A_AC3
Duration : 1h 51mn
Bit rate mode : Constant
Bit rate : 384 Kbps
Channel(s) : 6 channels
Channel positions : Front: L C R, Surround: L R, LFE
Sampling rate : 48.0 KHz
Stream size : 307 MiB (14%)
Title : Дубляж
Language : Russian
Text #3
ID : 3
Format : UTF-8
Codec ID : S_TEXT/UTF8
Codec ID/Info : UTF-8 Plain Text
Language : Russian

Создавать темы 05-Дек-2010 02:03

[Профиль]  [ЛС] 

crumb

Стаж: 7 лет 2 месяца

Сообщений: 160

Симпатии: 9

молодец basma4, хорошо оформил, скрины то что надо

Создавать темы 05-Дек-2010 10:09

[Профиль]  [ЛС] 

elia

Стаж: 7 лет 1 месяц

Сообщений: 13

crumb
молодец basma4, хорошо оформил, скрины то что надо
Согласен, basma4 - постарался, по пятибальной шкале - "5".

Создавать темы 05-Дек-2010 21:11

[Профиль]  [ЛС] 

rbb

Стаж: 7 лет 1 месяц

Сообщений: 124

Спасибо босмач!

Создавать темы 06-Дек-2010 22:29

[Профиль]  [ЛС] 

ne0d1n

Стаж: 7 лет 2 месяца

Сообщений: 64

Симпатии: 14

А где скорость?

Создавать темы 14-Дек-2010 11:05

[Профиль]  [ЛС] 

joker000

Стаж: 7 лет 6 месяцев

Сообщений: 33

basma4 раздавать когда будем уже 3 неделю качаем имей совесть скорости прибавь
пожалуйста az

Создавать темы 28-Янв-2011 22:43

[Профиль]  [ЛС] 

joker000

Стаж: 7 лет 6 месяцев

Сообщений: 33

Басмач мы когда нибудь скачаем на раздачу нормально встань aq

Создавать темы 06-Фев-2011 18:11

[Профиль]  [ЛС] 

Alliena

Стаж: 7 лет

Сообщений: 39

Симпатии: 2

Басмач, вернись на раздачу, пожалуйста!!!!!
Добавлено спустя 5 часов 2 минуты 6 секунд:
Спасибо! ab


Последний раз редактировалось: Alliena (2011-02-11 23:12), всего редактировалось 1 раз

Создавать темы 11-Фев-2011 23:12

[Профиль]  [ЛС] 

Millenium

Стаж: 6 лет 7 месяцев

Сообщений: 159

Симпатии: 3

Сидеры подключайтесь плиз. bi bi

Создавать темы 02-Май-2011 12:22

[Профиль]  [ЛС] 

Alla

Стаж: 7 лет 2 месяца

Сообщений: 111

А раздача еть вобще?

Создавать темы 09-Май-2011 14:18

[Профиль]  [ЛС] 

niagarro

Стаж: 6 лет 10 месяцев

Сообщений: 2

Раздачи нет ac

Создавать темы 03-Авг-2011 21:35

[Профиль]  [ЛС] 

Madnemec

Стаж: 7 лет 7 месяцев

Сообщений: 51

Симпатии: 12

Походу так и не дождёмся мы этой раздачи, с мира быстрее бы вытянул

Создавать темы 24-Ноя-2011 22:20

[Профиль]  [ЛС] 

hildeN

Стаж: 6 лет 10 месяцев

Сообщений: 59

Симпатии: 2

DAYTE SKOROST

Создавать темы 26-Ноя-2011 07:25

[Профиль]  [ЛС] 

majestic

Стаж: 6 лет 7 месяцев

Сообщений: 52

Симпатии: 12

basma4 плиз... Вернись, дай раздачу/скорость... az ay

Создавать темы 18-Дек-2011 04:16

[Профиль]  [ЛС] 

majestic

Стаж: 6 лет 7 месяцев

Сообщений: 52

Симпатии: 12

basma4, Alliena дайте докачать... bc bc bc
Добавлено спустя 5 минут 55 секунд:
basma4, Alliena дайте докачать... bc bc bc


Последний раз редактировалось: majestic (2011-12-19 04:30), всего редактировалось 1 раз

Создавать темы 19-Дек-2011 04:30

[Профиль]  [ЛС] 
Показать сообщения:    
Ответить на тему

Текущее время: 15-Дек 13:31

Часовой пояс: UTC + 5



Вы не можете начинать темы
Вы не можете отвечать на сообщения
Вы не можете редактировать свои сообщения
Вы не можете удалять свои сообщения
Вы не можете голосовать в опросах
Вы не можете прикреплять файлы к сообщениям
Вы не можете скачивать файлы