Тачки / CARS (Джо Ранфт, Джон Лассетер) [2006 г., мультфильм, комедия, приключения, HDTV]

Страницы :  1, 2  След.

Ответить на тему
 

Aleks_T ®

Стаж: 6 лет 11 месяцев

Сообщений: 16

Симпатии: 3

Тачки / CARS
Год выпуска: 2006
Страна: США
Жанр: мультфильм, комедия, приключения
Продолжительность: 01:56:30
Перевод: Профессиональный (полное дублирование)
Режиссер: Джо Ранфт, Джон Лассетер
В ролях: Оуэн Уилсон, Пол Ньюман, Бонни Хант, Чич Марин, Тони Шалуб, Гидо Куарони, Дженифер Льюис, Пол Дули, Майкл Уоллис и др.
Описание: Герой картины – гоночный автомобиль МакКуин по прозвищу «Молния», привыкший жить только на полной скорости. Во время ралли МакКуин выбывает из гонки, по ошибке сойдя с маршрута, и оказывается в захолустном городишке. Там он знакомится с другими персонажами – тягачом Мэтром (он хочет стать самым быстрым автомобилем в номинации «задний ход»), итальянским автомобилем – коммивояжером, который постоянно предлагает Молнии купить новые шины, тату – мастером Рамоном, склоняющим МакКуина перекраситься, и звездой города – красавицей Салли (Порше 911) Все эти машины становятся друзьями Молнии и помогают ему увидеть смысл жизни не только в вечной погоне за славой и успехом, но и в простых автомобильных радостях. Сам же МакКуин помогает друзьям вдохнуть новую жизнь в город, который был вычеркнут из всех автомобильных карт после того, как рядом с ним было проложено новое сверхсовременное скоростное шоссе…

Доп. информация

Format : Matroska
File size : 4.68 GiB
Duration : 1h 56mn
Overall bit rate : 5 752 Kbps
Encoded date : UTC 2007-11-08 20:27:14
Writing application : mkvmerge v2.1.0 ('Another Place To Fall') built on Aug 19 2007 13:40:07
Writing library : libebml v0.7.7 + libmatroska v0.8.1
Video
ID : 1
Format : AVC
Format/Info : Advanced Video Codec
Format profile : [email protected]
Format settings, CABAC : Yes
Format settings, ReFrames : 8 frames
Muxing mode : Container [email protected]
Codec ID : V_MPEG4/ISO/AVC
Duration : 1h 56mn
Bit rate : 4 729 Kbps
Width : 1 280 pixels
Height : 528 pixels
Display aspect ratio : 2.40:1
Frame rate : 23.976 fps
Color space : YUV
Chroma subsampling : 4:2:0
Bit depth : 8 bits
Scan type : Progressive
Bits/(Pixel*Frame) : 0.292
Stream size : 3.76 GiB (80%)
Writing library : x264 core 56 svn-675
Language : English
Audio #1
ID : 2
Format : AC-3
Format/Info : Audio Coding 3
Mode extension : CM (complete main)
Codec ID : A_AC3
Duration : 1h 56mn
Bit rate mode : Constant
Bit rate : 384 Kbps
Channel(s) : 6 channels
Channel positions : Front: L C R, Side: L R, LFE
Sampling rate : 48.0 KHz
Bit depth : 16 bits
Stream size : 320 MiB (7%)
Language : Russian
Audio #2
ID : 3
Format : AC-3
Format/Info : Audio Coding 3
Mode extension : CM (complete main)
Codec ID : A_AC3
Duration : 1h 56mn
Bit rate mode : Constant
Bit rate : 640 Kbps
Channel(s) : 6 channels
Channel positions : Front: L C R, Side: L R, LFE
Sampling rate : 48.0 KHz
Bit depth : 16 bits
Stream size : 534 MiB (11%)
Качество: HDTV
Формат: MKV
Видео кодек: H.26x
Аудио кодек: AC3
Видео: MPEG4 Video (H264) 1280x528 23.98fp
Аудио: Dolby AC3 48000Hz 6ch

Скриншоты



Создавать темы 07-Дек-2010 19:39

[Профиль]  [ЛС] 

bahosh

Стаж: 7 лет 4 месяца

Сообщений: 91

Симпатии: 2

Модераторы проверьте тему...

Создавать темы 07-Дек-2010 20:12

[Профиль]  [ЛС] 

john_BoY07

Стаж: 7 лет

Сообщений: 123

Симпатии: 44

Тачки2 у кого нибут ест ???

Создавать темы 10-Фев-2011 20:20

[Профиль]  [ЛС] 

Anvar709

Стаж: 6 лет 8 месяцев

Сообщений: 5

Тачки2 выйдет в июне а сейчас есть только трейлер

Создавать темы 25-Мар-2011 19:02

[Профиль]  [ЛС] 

NURAISLAM

Стаж: 6 лет 6 месяцев

Сообщений: 3

а игра у кого есть

Создавать темы 09-Апр-2011 17:13

[Профиль]  [ЛС] 

sixaxis

Стаж: 6 лет 6 месяцев

Сообщений: 75

Привет Всем, народ помогите докачать мультик для моих детей и племяникам, буду очень благодарен, СИДЫ где вы ау.. ai ai ai

Создавать темы 19-Май-2011 21:54

[Профиль]  [ЛС] 

azik

Стаж: 7 лет 1 месяц

Сообщений: 32

прикольный мультик.

Создавать темы 22-Май-2011 18:04

[Профиль]  [ЛС] 

Bek_uz

Стаж: 6 лет 5 месяцев

Сообщений: 60

Симпатии: 1

найдите такой качество BD/HDRip 1,2 часть будем обязательно качать az ay

Создавать темы 28-Сен-2011 13:13

[Профиль]  [ЛС] 

Emporio

Стаж: 5 лет 5 месяцев

Сообщений: 4

Ау, кто-нибудь, встаньте на раздачу!!!

Создавать темы 23-Июн-2012 21:50

[Профиль]  [ЛС] 

Emporio

Стаж: 5 лет 5 месяцев

Сообщений: 4

Спасибо

Создавать темы 24-Июн-2012 07:28

[Профиль]  [ЛС] 

Major

Стаж: 5 лет

Сообщений: 7

Встаньте на раздачу! Очень надо!

Создавать темы 05-Ноя-2012 11:55

[Профиль]  [ЛС] 

Alla

Стаж: 7 лет

Сообщений: 111

Дайте скорости если можно

Создавать темы 19-Ноя-2012 14:55

[Профиль]  [ЛС] 

Alla

Стаж: 7 лет

Сообщений: 111

Куда раздающие подевались?

Создавать темы 20-Ноя-2012 16:47

[Профиль]  [ЛС] 

Alla

Стаж: 7 лет

Сообщений: 111

Сколько просить можно где скорость?

Создавать темы 21-Ноя-2012 13:30

[Профиль]  [ЛС] 

Alla

Стаж: 7 лет

Сообщений: 111

Пять сидов а скорость где?

Создавать темы 21-Ноя-2012 21:04

[Профиль]  [ЛС] 
Показать сообщения:    
Ответить на тему

Текущее время: 23-Окт 07:36

Часовой пояс: UTC + 5



Вы не можете начинать темы
Вы не можете отвечать на сообщения
Вы не можете редактировать свои сообщения
Вы не можете удалять свои сообщения
Вы не можете голосовать в опросах
Вы не можете прикреплять файлы к сообщениям
Вы не можете скачивать файлы