Пила: Гексалогия: (2004-2009) BDRip 1080p / Saw: Hexalogy (2004-2009) BDRip 1080p

Страницы :  1, 2, 3, 4, 5  След.

Ответить на тему
 

basma4 ®

Стаж: 7 лет 11 месяцев

Сообщений: 74

Симпатии: 19

-Пила: Игра на выживание / Saw
Год выпуска: 2004
Страна: США, Lions Gate Films
Жанр: Детектив, Ужасы, Триллер
Перевод: Русский дублированный + Оригинальный английский
Формат: MKV
Качество: BDRip
Продолжительность: 01:42:46
MPAA: R - Лицам до 17 лет обязательно присутствие взрослого
Режиссер: Джеймс Ван.
В ролях: Ли Уоннелл, Кери Элвис, Данни Гловер, Кен Леунг, Дина Мейер, Майк Баттерс и др.Описание: Двое незнакомцев просыпаются в странном подвальном помещении. В центре помещения — труп мужчины с простреленной головой и оружием в ослабевшей руке. Они же прикованы к стенам цепями за щиколотки. Оба не знают, как там оказались.Путём нехитрых предположений и спрятанных вокруг них ответов, как частей какого-то паззла, они узнают, по крайней мере, зачем они здесь и что именно от них ждёт их Похититель. Голос с найденной плёнки бесстрастно вещает: «Если ты хочешь спасти свою жену и детей, убей другого». Убить другого можно, только дотянувшись до оружия.

Медиа инфо: Saw.2004.BDRip.1080p.x264.mkv

Format : Matroska
File size : 8.03 GiB
Duration : 1h 42mn
Overall bit rate : 11.2 Mbps
Writing library : libebml v0.7.7 + libmatroska v0.8.1
Cover : Yes
Video #1
ID : 1
Format : AVC
Format/Info : Advanced Video Codec
Format profile : [email protected]
Format settings, CABAC : Yes
Format settings, ReFrames : 8 frames
Muxing mode : Container [email protected]
Codec ID : V_MPEG4/ISO/AVC
Duration : 1h 42mn
Bit rate : 10.2 Mbps
Nominal bit rate : 10.4 Mbps
Width : 1 920 pixels
Height : 1 080 pixels
Display aspect ratio : 16:9
Frame rate : 23.976 fps
Resolution : 24 bits
Colorimetry : 4:2:0
Scan type : Progressive
Bits/(Pixel*Frame) : 0.205
Stream size : 7.32 GiB (91%)
Title : Saw (2004)
Writing library : x264 core 55
Audio #2
ID : 2
Format : DTS
Format/Info : Digital Theater Systems
Codec ID : A_DTS
Duration : 1h 42mn
Bit rate mode : Constant
Bit rate : 755 Kbps
Channel(s) : 6 channels
Channel positions : Front: L C R, Surround: L R, LFE
Sampling rate : 48.0 KHz
Resolution : 24 bits
Stream size : 555 MiB (7%)
Language : Russian
Text #3
ID : 3
Format : ASS
Codec ID : S_TEXT/ASS
Codec ID/Info : Advanced Sub Station Alpha
Title : English
Language : English

Кадры из фильма




-
Пила 2 / Saw II
Год выпуска: 2005
Страна: США, Lions Gate Films
Жанр: Детектив, Ужасы, Триллер
Перевод: Русский дублированный + Оригинальный английский
Формат: MKV
Качество: BDRip
Продолжительность: 01:34:32
MPAA: R - Лицам до 17 лет обязательно присутствие взрослого
Режиссер: Даррел Линн Бусман.
В ролях: Шоуни Смит, Донни Уолберг, Тобин Белл, Гленн Пламмер, Дина Мейер, Берерли Митчелл и др.Описание: Во время расследования подробностей кровавых деяний неизвестного убийцы детектив Эрик Мэтьюс ловит себя на мысли, что они очень похожи на работу Пилы — известного маньяка, который смог исчезнуть, оставив за собой множество жертв. Метьюс оказывается прав. Пила снова взялся за свое ужасное ремесло. Только на этот раз вместо двух людей, он запирает в комнате смерти с единственных способом выбраться живым, сразу восемь человек. Восемь никак не связанных друг с другом незнакомцев оказываются вынуждены вступить в игру сумашедшего убийцы, ставками в которой будут их жизни…

Медиа инфо: Saw.II.2005.BDRip.1080p.x264.mkv

Format : Matroska
File size : 10.1 GiB
Duration : 1h 34mn
Overall bit rate : 15.3 Mbps
Writing library : libebml v0.7.7 + libmatroska v0.8.1
Video #1
ID : 1
Format : AVC
Format/Info : Advanced Video Codec
Format profile : [email protected]
Format settings, CABAC : Yes
Format settings, ReFrames : 7 frames
Muxing mode : Container [email protected]
Codec ID : V_MPEG4/ISO/AVC
Duration : 1h 34mn
Bit rate : 13.5 Mbps
Nominal bit rate : 13.8 Mbps
Width : 1 920 pixels
Height : 1 080 pixels
Display aspect ratio : 16:9
Frame rate : 23.976 fps
Resolution : 24 bits
Colorimetry : 4:2:0
Scan type : Progressive
Bits/(Pixel*Frame) : 0.272
Stream size : 8.91 GiB (88%)
Writing library : x264 core 56 svn-680
Audio #2
ID : 2
Format : DTS
Format/Info : Digital Theater Systems
Codec ID : A_DTS
Duration : 1h 34mn
Bit rate mode : Constant
Bit rate : 1 510 Kbps
Channel(s) : 6 channels
Channel positions : Front: L C R, Surround: L R, LFE
Sampling rate : 48.0 KHz
Resolution : 24 bits
Stream size : 1 021 MiB (10%)
Language : Russian

Кадры из фильма



[

-
Пила 3 / Saw III
Год выпуска: 2006
Страна: США, Lions Gate Films
Жанр: Детектив, Ужасы, Триллер
Перевод: Русский дублированный + Оригинальный английский
Формат: MKV
Качество: BDRip
Продолжительность: 01:53:44
MPAA: R - Лицам до 17 лет обязательно присутствие взрослого
Режиссер: Даррел Линн Бусман.
В ролях: Тобин Белл, Энгус МакФадьен, Дина Мейер, Шауни Смит, Бахар Сумех и др.Описание: Изобретатель зловещих игр остается безнаказанным и в итоге бесследно исчезает вместе со своей сообщницей Амандой. В то время, как детективы тщетно пытаются выйти на его след, доктор Линн Денлон становится очередной жертвой этого маньяка.Однажды ночью Линн похищают и привозят в заброшенный склад, где она встречается с самим злодеем, находящимся на смертном одре. Ей приказывают сохранять жизнь этому безумцу, пока Джефф, еще одна из его жертв, не доведет до конца начатую с ним «игру»…

Медиа инфо:Saw.III.2006.BDRip.1080p.x264.mkv

Format : Matroska
File size : 9.27 GiB
Duration : 1h 53mn
Overall bit rate : 11.7 Mbps
Encoded date : UTC 2007-12-08 10:11:34
Writing library : libebml v0.7.7 + libmatroska v0.8.1
Video #1
ID : 1
Format : AVC
Format/Info : Advanced Video Codec
Format profile : [email protected]
Format settings, CABAC : Yes
Format settings, ReFrames : 7 frames
Muxing mode : Container [email protected]
Codec ID : V_MPEG4/ISO/AVC
Duration : 1h 53mn
Bit rate : 11.0 Mbps
Nominal bit rate : 11.2 Mbps
Width : 1 920 pixels
Height : 1 080 pixels
Display aspect ratio : 16:9
Frame rate : 23.976 fps
Resolution : 24 bits
Colorimetry : 4:2:0
Scan type : Progressive
Bits/(Pixel*Frame) : 0.221
Stream size : 8.72 GiB (94%)
Writing library : x264 core 56 svn-680
Language : English
Audio #2
ID : 2
Format : AC-3
Format/Info : Audio Coding 3
Codec ID : A_AC3
Duration : 1h 53mn
Bit rate mode : Constant
Bit rate : 448 Kbps
Channel(s) : 6 channels
Channel positions : Front: L C R, Surround: L R, LFE
Sampling rate : 48.0 KHz
Stream size : 364 MiB (4%)
Language : Russian

Кадры из фильма




-
Пила 4 / Saw IV
Год выпуска: 2007
Страна: США, Lions Gate Films
Жанр: Детектив, Ужасы, Триллер
Перевод: Русский дублированный + Оригинальный английский
Формат: MKV
Качество: BDRip
Продолжительность: 01:35:30
MPAA: R - Лицам до 17 лет обязательно присутствие взрослого
Режиссер: Даррел Линн Бусман.
В ролях: Тобин Белл, Костас Мандилор, Скотт Паттерсон, Бетси Расселл, Лирик Бент, Афена Карканис и др.Описание: Получив известие об убийстве детектива Кэрри, два опытных сотрудника ФБР, агент Стрэм и агент Перез, прибывают в полицейский участок, чтобы помочь старому детективу Хоффману проанализировать последнюю ужасную игру Пилы и соединить все части головоломки. Однако, когда капитан Ригг, последний полицейский, нетронутый Пилой, оказывается похищен и вовлечен в чудовищную игру маньяка, у офицера остается лишь девяносто минут, чтобы обнаружить ряд взаимосвязанных ловушек… или оказаться перед лицом их беспощадных последствий. В то время, как Ригга по всему городу преследуют следы трупов, детектив Хоффман и ФБР обнаруживают глубоко спрятанные ключи к разгадке, которые приводят их назад к бывшей жене Пилы — Джил.

Медиа инфо: Saw.IV.BDRip.1080p.x264.mkv

Format : Matroska
File size : 8.96 GiB
Duration : 1h 35mn
Overall bit rate : 13.4 Mbps
Writing library : libebml v0.7.7 + libmatroska v0.8.1
Video #1
ID : 1
Format : AVC
Format/Info : Advanced Video Codec
Format profile : [email protected]
Format settings, CABAC : Yes
Format settings, ReFrames : 8 frames
Muxing mode : Container [email protected]
Codec ID : V_MPEG4/ISO/AVC
Duration : 1h 35mn
Bit rate : 10.1 Mbps
Nominal bit rate : 10.4 Mbps
Width : 1 920 pixels
Height : 1 080 pixels
Display aspect ratio : 16:9
Frame rate : 23.976 fps
Resolution : 24 bits
Colorimetry : 4:2:0
Scan type : Progressive
Bits/(Pixel*Frame) : 0.204
Stream size : 6.76 GiB (75%)
Title : Saw.IV.UNRATED.1080p.Bluray.x264
Writing library : x264 core 57 svn-709C
Audio #2
ID : 2
Format : DTS
Format/Info : Digital Theater Systems
Codec ID : A_DTS
Duration : 1h 35mn
Bit rate mode : Constant
Bit rate : 1 510 Kbps
Channel(s) : 6 channels
Channel positions : Front: L C R, Surround: L R, LFE
Sampling rate : 48.0 KHz
Resolution : 24 bits
Stream size : 1.01 GiB (11%)
Title : DTS 5.1, 1536 kbps
Language : Russian
Audio #3
ID : 3
Format : DTS
Format/Info : Digital Theater Systems
Codec ID : A_DTS
Duration : 1h 35mn
Bit rate mode : Constant
Bit rate : 1 510 Kbps
Channel(s) : 6 channels
Channel positions : Front: L C R, Surround: L R, LFE
Sampling rate : 48.0 KHz
Resolution : 24 bits
Stream size : 1.01 GiB (11%)
Title : DTS 5.1, 1536 kbps
Language : English

Кадры из фильма




-
Пила 5 / Saw V
Год выпуска: 2008
Страна: США, Lions Gate Films
Жанр: Детектив, Ужасы, Триллер
Перевод: Русский дублированный + Оригинальный английский
Формат: MKV
Качество: BDRip
Продолжительность: 01:35:03
MPAA: R - Лицам до 17 лет обязательно присутствие взрослого
Режиссер: Дэвид Хэкл.
В ролях: Тобин Белл, Костас Мандилор, Скотт Паттерсон, Бетси Расселл, Джули Бенц, Мэган Гуд, Марк Ролстон, Карло Рота, Грег Брайк, Лаура Гордон и др.Описание: Один из последователей маньяка-убийцы Джигсу, Марк Хоффман, следуя заветам своего кровавого гуру, готовит очередную смертельную головоломку. Тем временем агент Стром начинает догадываться о связи Хоффмана с Джигсау, и Хоффману приходится выйти на новую охоту, чтобы уничтожить все ниточки, ведущие к нему. Пятерых незнакомым друг с другом людей уже ждет жестокий урок командной игры на выживание — еще больше крови, еще изощреннее ловушки… Стром идет по следам Хоффмана, пытаясь докопаться до причин, по которым он присоединился к Джигсау. Их ждет встреча лицом к лицу в преддверии неотвратимого и непредсказуемого финала.

Медиа инфо: Saw.V.BDRip.1080p.x264.mkv

Format : Matroska
File size : 8.31 GiB
Duration : 1h 35mn
Overall bit rate : 12.5 Mbps
Movie name : Saw V (2008)
Encoded date : UTC 2009-01-19 19:10:55
Writing application : mkvmerge v2.4.0 ('Fumbling Towards Ecstasy') built on Oct 11 2008 20:13:15
Writing library : libebml v0.7.7 + libmatroska v0.8.1
Cover : Yes / Yes / Yes
Video #1
ID : 1
Format : AVC
Format/Info : Advanced Video Codec
Format profile : [email protected]
Format settings, CABAC : Yes
Format settings, ReFrames : 5 frames
Muxing mode : Container p[email protected]
Codec ID : V_MPEG4/ISO/AVC
Duration : 1h 34mn
Bit rate : 10.8 Mbps
Nominal bit rate : 11.0 Mbps
Width : 1 920 pixels
Height : 1 080 pixels
Display aspect ratio : 16:9
Frame rate : 23.976 fps
Resolution : 24 bits
Colorimetry : 4:2:0
Scan type : Progressive
Bits/(Pixel*Frame) : 0.216
Stream size : 7.13 GiB (86%)
Title : x264-CtrlHD
Writing library : x264 core 65 r1057M 5f8a149
Audio #2
ID : 2
Format : DTS
Format/Info : Digital Theater Systems
Codec ID : A_DTS
Duration : 1h 35mn
Bit rate mode : Constant
Bit rate : 1 510 Kbps
Channel(s) : 6 channels
Channel positions : Front: L C R, Surround: L R, LFE
Sampling rate : 48.0 KHz
Resolution : 24 bits
Stream size : 1.00 GiB (12%)
Title : DTS 5.1 (1536 kbps)
Language : Russian
Text #3
ID : 3
Format : UTF-8
Codec ID : S_TEXT/UTF8
Codec ID/Info : UTF-8 Plain Text
Title : #1 SRT (Unrated Only)
Language : Russian
Text #4
ID : 4
Format : UTF-8
Codec ID : S_TEXT/UTF8
Codec ID/Info : UTF-8 Plain Text
Title : #2 SRT
Language : Russian
Text #5
ID : 5
Format : UTF-8
Codec ID : S_TEXT/UTF8
Codec ID/Info : UTF-8 Plain Text
Title : #3 SRT
Language : English
Text #6
ID : 6
Format : UTF-8
Codec ID : S_TEXT/UTF8
Codec ID/Info : UTF-8 Plain Text
Title : #4 SRT (Hearing Impaired)
Language : English
Text #7
ID : 7
Format : ASS
Codec ID : S_TEXT/ASS
Codec ID/Info : Advanced Sub Station Alpha
Title : #5 ASS
Language : English
Text #8
ID : 8
Format : ASS
Codec ID : S_TEXT/ASS
Codec ID/Info : Advanced Sub Station Alpha
Title : #6 ASS
Language : Czech
Text #9
ID : 9
Format : ASS
Codec ID : S_TEXT/ASS
Codec ID/Info : Advanced Sub Station Alpha
Title : #7 ASS
Language : Danish
Text #10
ID : 10
Format : ASS
Codec ID : S_TEXT/ASS
Codec ID/Info : Advanced Sub Station Alpha
Title : #8 ASS
Language : Finnish
Text #11
ID : 11
Format : ASS
Codec ID : S_TEXT/ASS
Codec ID/Info : Advanced Sub Station Alpha
Title : #9 ASS
Language : Hungarian
Text #12
ID : 12
Format : ASS
Codec ID : S_TEXT/ASS
Codec ID/Info : Advanced Sub Station Alpha
Title : #10 ASS
Language : Portuguese
Text #13
ID : 13
Format : ASS
Codec ID : S_TEXT/ASS
Codec ID/Info : Advanced Sub Station Alpha
Title : #11 ASS
Language : Romanian
Text #14
ID : 14
Format : ASS
Codec ID : S_TEXT/ASS
Codec ID/Info : Advanced Sub Station Alpha
Title : #12 ASS
Language : Spanish

Кадры из фильма




-
Пила 6 / Saw VI
Год выпуска: 2009
Страна: США, Lions Gate Films
Жанр: Детектив, Ужасы, Триллер
Перевод: Русский дублированный + Оригинальный английский
Формат: MKV
Качество: BDRip
Продолжительность: 01:31:39
MPAA: R - Лицам до 17 лет обязательно присутствие взрослого
Режиссер: Кевин Гротерт.
В ролях: Тобин Белл, Костас Мэндилор, Марк Ролстон, Бетси Расселл, Шоуни Смит, Питер Аутербридж, Афена Карканис, Саманта Лемоул, Танедра Ховард, Марти Моро и др.Описание: Специальный агент Страм мертв и нет никаких сомнений в том, что детектив Хоффман является продолжателем дела Конструктора. Но когда ФБР садится ему на след, он вынужден вновь начать Игру, наконец-то расставляющую все точки над i в грандиозном плане Конструктора.

Медиа инфо: Saw.VI.2009.BDRip.1080p.x264.mkv

Format : Matroska
File size : 7.13 GiB
Duration : 1h 31mn
Overall bit rate : 11.1 Mbps
Encoded date : UTC 2010-01-14 18:37:10
Writing application : mkvmerge v2.9.7 ('Tenderness') built on Jul 1 2009 18:43:35
Writing library : libebml v0.7.7 + libmatroska v0.8.1
Video #1
ID : 1
Format : AVC
Format/Info : Advanced Video Codec
Format profile : [email protected]
Format settings, CABAC : Yes
Format settings, ReFrames : 4 frames
Muxing mode : Container [email protected]
Codec ID : V_MPEG4/ISO/AVC
Duration : 1h 31mn
Bit rate : 8 514 Kbps
Nominal bit rate : 8 736 Kbps
Width : 1 920 pixels
Height : 1 080 pixels
Display aspect ratio : 16:9
Frame rate : 23.976 fps
Resolution : 24 bits
Colorimetry : 4:2:0
Scan type : Progressive
Bits/(Pixel*Frame) : 0.171
Stream size : 5.45 GiB (76%)
Writing library : x264 core 80 r1376 3feaec2
Audio #2
ID : 2
Format : AC-3
Format/Info : Audio Coding 3
Codec ID : A_AC3
Duration : 1h 31mn
Bit rate mode : Constant
Bit rate : 448 Kbps
Channel(s) : 6 channels
Channel positions : Front: L C R, Surround: L R, LFE
Sampling rate : 48.0 KHz
Stream size : 294 MiB (4%)
Language : Russian
Audio #3
ID : 3
Format : DTS
Format/Info : Digital Theater Systems
Codec ID : A_DTS
Duration : 1h 31mn
Bit rate mode : Constant
Bit rate : 1 510 Kbps
Channel(s) : 6 channels
Channel positions : Front: L C R, Surround: L R, LFE
Sampling rate : 48.0 KHz
Resolution : 24 bits
Video delay : 11ms
Stream size : 990 MiB (14%)
Language : English
Audio #4
ID : 4
Format : AC-3
Format/Info : Audio Coding 3
Format profile : Dolby Digital
Codec ID : A_AC3
Duration : 1h 31mn
Bit rate mode : Constant
Bit rate : 224 Kbps
Channel(s) : 2 channels
Channel positions : L R
Sampling rate : 48.0 KHz
Stream size : 147 MiB (2%)
Title : Comments #1
Language : English
Audio #5
ID : 5
Format : AC-3
Format/Info : Audio Coding 3
Format profile : Dolby Digital
Codec ID : A_AC3
Duration : 1h 31mn
Bit rate mode : Constant
Bit rate : 224 Kbps
Channel(s) : 2 channels
Channel positions : L R
Sampling rate : 48.0 KHz
Stream size : 147 MiB (2%)
Title : Comments #2
Language : English
Text #6
ID : 6
Format : UTF-8
Codec ID : S_TEXT/UTF8
Codec ID/Info : UTF-8 Plain Text
Language : English

Кадры из фильма





Последний раз редактировалось: basma4 (2010-12-15 00:11), всего редактировалось 2 раз(а)

Создавать темы 07-Дек-2010 23:55

[Профиль]  [ЛС] 

PROSTREET

Стаж: 7 лет 7 месяцев

Сообщений: 78

Симпатии: 2

basma4
Может посеребришь? ;)

Создавать темы 08-Дек-2010 00:02

[Профиль]  [ЛС] 

Michel

Стаж: 7 лет

Сообщений: 78

Симпатии: 5

basma4
Может посеребришь? ;)
Какое серебро? За такие вещи только золото!!!

Создавать темы 08-Дек-2010 01:23

[Профиль]  [ЛС] 

bahosh

Стаж: 7 лет 6 месяцев

Сообщений: 91

Симпатии: 2

Для начало было бы неплохо встать на нормальную раздачу 51,81 GB с раздачей по 0,1кб это куда годится....

Создавать темы 08-Дек-2010 12:46

[Профиль]  [ЛС] 

Assassin

Стаж: 7 лет 10 месяцев

Сообщений: 49

Симпатии: 1

К 2012 году скачаем ab

Создавать темы 08-Дек-2010 13:06

[Профиль]  [ЛС] 

bahosh

Стаж: 7 лет 6 месяцев

Сообщений: 91

Симпатии: 2

Assassin СПС умеешь утешить ... bi

Создавать темы 08-Дек-2010 13:26

[Профиль]  [ЛС] 

bahosh

Стаж: 7 лет 6 месяцев

Сообщений: 91

Симпатии: 2

появился еще один сид,но походу толка нет!Ребята дайте раздачу,может хоть ночку нормально покачаем???

Создавать темы 10-Дек-2010 16:31

[Профиль]  [ЛС] 

SanJar

Стаж: 8 лет 10 месяцев

Сообщений: 15

Спс за Коллексия

Создавать темы 10-Дек-2010 19:47

[Профиль]  [ЛС] 

bahosh

Стаж: 7 лет 6 месяцев

Сообщений: 91

Симпатии: 2

basma4 Прибавь скорости хотябы 10кб поставь....

Создавать темы 11-Дек-2010 10:25

[Профиль]  [ЛС] 

AlexSavier

Стаж: 7 лет 1 месяц

Сообщений: 2

Вау супер. Газу поддайте. Седьмая будет в том же качестве?

Создавать темы 12-Дек-2010 04:22

[Профиль]  [ЛС] 

bahosh

Стаж: 7 лет 6 месяцев

Сообщений: 91

Симпатии: 2

AlexSavier А тут тебя от Муркока в сон не тянет?Или тут Берроузы много?

Создавать темы 12-Дек-2010 05:41

[Профиль]  [ЛС] 

mara_pro

Стаж: 7 лет 5 месяцев

Сообщений: 19

ребята скорость прибавте!! заранее спасибо

Создавать темы 12-Дек-2010 08:33

[Профиль]  [ЛС] 

SanJar

Стаж: 8 лет 10 месяцев

Сообщений: 15

СПС ЗА 1080p

Создавать темы 29-Дек-2010 19:21

[Профиль]  [ЛС] 

ganjebas

Стаж: 6 лет 11 месяцев

Сообщений: 2

а можно подать газку?

Создавать темы 03-Янв-2011 01:06

[Профиль]  [ЛС] 

portntv

Стаж: 7 лет 6 месяцев

Сообщений: 13

прибавьте скорость пожалуйста! осталось 3% дайте сегодня докачать уважаемый сиди!!!

Создавать темы 09-Янв-2011 15:28

[Профиль]  [ЛС] 
Показать сообщения:    
Ответить на тему

Текущее время: 14-Дек 11:30

Часовой пояс: UTC + 5



Вы не можете начинать темы
Вы не можете отвечать на сообщения
Вы не можете редактировать свои сообщения
Вы не можете удалять свои сообщения
Вы не можете голосовать в опросах
Вы не можете прикреплять файлы к сообщениям
Вы не можете скачивать файлы