Человеческая многоножка / The Human Centipede (First Sequence) (Том Сикс) [2009 г., Ужасы, триллер, BDRip]

Страницы :  1, 2, 3  След.

Ответить на тему
 

basma4 ®

Стаж: 7 лет 11 месяцев

Сообщений: 74

Симпатии: 19

- Год выпуска: 2009
Страна: Нидерланды
Жанр: Ужасы, триллер
Продолжительность: 01:31:57
Перевод: Любительский (двухголосый)
Режиссер: Том Сикс
В ролях: Дитер Лазер, Эшли Уильямс, Эшлинн Йенни, Акихиро Китамура, Андреас Леупольд, Питер БланкенштейнОписание: Две симпатичные американские девушки Линдсэй и Дженни путешествуют автомобилем по Европе. Однажды ночью на дороге где-то в лесах Германии они пробивают шины и в поисках помощи натыкаются на заброшенную виллу, хозяин которой накачивает их наркотиками и затягивает в самодельную больничную палату в подвале. Утром девушки узнают, что они здесь не одни, а гостеприимный пожилой немец не кто иной, как доктор Хайтер, отставной хирург, всемирно известный эксперт по разделению сиамских близнецов. Но только на сей раз он собирается не разделять людей, а соединить их в «человеческую многоножку» с одной пищеварительной системой. И доктора совершенно не пугает тот факт, что в предыдущем его эксперименте «три собаки» погибли.

Доп. информация:
Качество: BDRip 720p
Формат: MKV
Видео кодек: H.26x
Аудио кодек: AC3
Видео: 1280x720, 3229 Кбит/сек, 23,976 кадр/сек, AVC, x264, 16:9, 0.141 Бит/(Пиксели*Кадры)
Аудио: AC-3, 192 Кбит/сек, 2 канала(ов), 48,0 КГц

Медиа инфо

General
Format : Matroska
File size : 2.17 GiB
Duration : 1h 31mn
Overall bit rate : 3 379 Kbps
Writing library : libebml v0.7.9 + libmatroska v0.8.1
Video #1
ID : 1
Format : AVC
Format/Info : Advanced Video Codec
Format profile : [email protected]
Format settings, CABAC : Yes
Format settings, ReFrames : 3 frames
Muxing mode : Container [email protected]
Codec ID : V_MPEG4/ISO/AVC
Duration : 1h 31mn
Bit rate : 3 120 Kbps
Nominal bit rate : 3 229 Kbps
Width : 1 280 pixels
Height : 720 pixels
Display aspect ratio : 16:9
Frame rate : 23.976 fps
Resolution : 24 bits
Colorimetry : 4:2:0
Scan type : Progressive
Bits/(Pixel*Frame) : 0.141
Stream size : 2.00 GiB (92%)
Title : Человеческая многоножка.[nolimits-team.ru]
Writing library : x264 core 108 r1788 c764e29
Audio #2
ID : 2
Format : AC-3
Format/Info : Audio Coding 3
Codec ID : A_AC3
Duration : 1h 31mn
Bit rate mode : Constant
Bit rate : 192 Kbps
Channel(s) : 2 channels
Channel positions : L R
Sampling rate : 48.0 KHz
Stream size : 126 MiB (6%)
Title : Любительский (двухголосый)
Language : Russian

Кадры из фильма



Создавать темы 11-Дек-2010 01:11

[Профиль]  [ЛС] 

crumb

Стаж: 7 лет 2 месяца

Сообщений: 160

Симпатии: 9

Здраво оформил, скрины ваще чёткие, молодец ay

Создавать темы 11-Дек-2010 08:54

[Профиль]  [ЛС] 

rbb

Стаж: 7 лет 1 месяц

Сообщений: 124

Дааа, странное идея - соединения органов, Голландцы зажигают.
Надо посмотреть, спасибо автор.

Создавать темы 11-Дек-2010 13:28

[Профиль]  [ЛС] 

112

Стаж: 7 лет 1 месяц

Сообщений: 24

встаньте на раздачу пожалуста!!!

Создавать темы 16-Дек-2010 11:43

[Профиль]  [ЛС] 

Aziz1314

Стаж: 7 лет 4 месяца

Сообщений: 331

Симпатии: 13

Перевод: Любительский (двухголосый) Жаль

Создавать темы 16-Дек-2010 14:39

[Профиль]  [ЛС] 

Руслан

Стаж: 8 лет

Сообщений: 166

Симпатии: 2

Ну млин опять...вот только хотел скачать, и никого на раздаче.............
Интересный фильм, видел его в плохом качестве....................увы...........
Давайте раздачу плизззззззззззззззззззз!!!!!!!!!!!!!!!!

Создавать темы 10-Янв-2011 19:08

[Профиль]  [ЛС] 

WeeZy

Стаж: 8 лет 1 месяц

Сообщений: 67

да ну фильмец противный.....

Создавать темы 10-Янв-2011 19:40

[Профиль]  [ЛС] 

Pablito

Стаж: 7 лет 2 месяца

Сообщений: 36

Симпатии: 3

есть немного)) он еще и скучноватый... Бешеный врач)))

Создавать темы 16-Янв-2011 15:16

[Профиль]  [ЛС] 

Gorilla

Стаж: 6 лет 10 месяцев

Сообщений: 91

Симпатии: 11

одним словом жесть!узнать бы чего этот доктор курит ag

Создавать темы 04-Апр-2011 01:02

[Профиль]  [ЛС] 

eminem

Стаж: 7 лет 1 месяц

Сообщений: 104

узнать бы чего этот доктор курит
У нас на юге таким стаффом барыжат... Но он не из наших! Хотя кто знает...


Последний раз редактировалось: eminem (2011-04-04 01:50), всего редактировалось 1 раз

Создавать темы 04-Апр-2011 01:50

[Профиль]  [ЛС] 

Gorilla

Стаж: 6 лет 10 месяцев

Сообщений: 91

Симпатии: 11

узнать бы чего этот доктор курит
У нас на юге таким стаффом барыжат... Но он не из наших! Хотя кто знает...
надо к вам на юг заглянуть ag

Создавать темы 04-Апр-2011 02:15

[Профиль]  [ЛС] 

eminem

Стаж: 7 лет 1 месяц

Сообщений: 104

Вэлком, спилберг!

Создавать темы 04-Апр-2011 02:33

[Профиль]  [ЛС] 

Arnold

Стаж: 6 лет 8 месяцев

Сообщений: 149

Симпатии: 5

фуу у последних двоих кишка через рот идет говноеды!

Создавать темы 10-Апр-2011 21:59

[Профиль]  [ЛС] 

AssassiN2

Стаж: 7 лет 9 месяцев

Сообщений: 61

Симпатии: 4

фуу у последних двоих кишка через рот идет говноеды!
вуахахаха ну ты даёшь ))))))))))

Создавать темы 10-Апр-2011 23:31

[Профиль]  [ЛС] 

stek

Стаж: 7 лет 1 месяц

Сообщений: 5

ненавижу такие фильмы.....Жесть....

Создавать темы 24-Апр-2011 16:41

[Профиль]  [ЛС] 
Показать сообщения:    
Ответить на тему

Текущее время: 18-Дек 08:22

Часовой пояс: UTC + 5



Вы не можете начинать темы
Вы не можете отвечать на сообщения
Вы не можете редактировать свои сообщения
Вы не можете удалять свои сообщения
Вы не можете голосовать в опросах
Вы не можете прикреплять файлы к сообщениям
Вы не можете скачивать файлы