Кто я? (Клим Шипенко) [2010 г., драма, детектив, DVDRip]

Ответить на тему
 

Mr_ALo ®

Стаж: 7 лет 9 месяцев

Сообщений: 367

Симпатии: 20

Кто я?
Год выпуска: 2010
Жанр: драма, детектив
Продолжительность: 01:36:02
Режиссер: Клим Шипенко
В ролях: Михаил Бабичев, Анатолий Белый, Жанна Фриске, Сергей Газаров, Сергей Галанин, Илья Оболонков, Виктория Толстоганова, Татьяна Федоровская, Александр Яценко, Константин Демидов ...
Описание: Ранним дождливым утром на перроне железнодорожного вокзала рядом с поездом «Москва-Севастополь» милиция обнаруживает молодого человека, потерявшего память. Никаких документов при нем не найдено. Кто он? И как оказался на вокзале? Начинается расследование…- -Слоган «Всё, что вы вспомните, будет использовано против вас.»
Качество: DVDRip
Формат: AVI
Видео: XviD 720x304 25.000 fps 1581 кб/с
Аудио: AC3 48.0 KHz 6 ch (Front: L C R, Side: L R, LFE) 448 Kbps

Media info

Complete name : E:\Films\Кто я .2010.DVDRip.avi
Format : AVI
Format/Info : Audio Video Interleave
File size : 1.37 GiB
Duration : 1h 36mn
Overall bit rate : 2 036 Kbps
Writing application : VirtualDubMod 1.5.4.1 (build 2178/release)
Writing library : VirtualDubMod build 2178/release
Video
ID : 0
Format : MPEG-4 Visual
Format profile : Advanced [email protected]
Format settings, BVOP : No
Format settings, QPel : No
Format settings, GMC : No warppoints
Format settings, Matrix : Custom
Codec ID : XVID
Codec ID/Hint : XviD
Duration : 1h 36mn
Bit rate : 1 581 Kbps
Width : 720 pixels
Height : 304 pixels
Display aspect ratio : 2.35:1
Frame rate : 25.000 fps
Color space : YUV
Chroma subsampling : 4:2:0
Bit depth : 8 bits
Scan type : Progressive
Bits/(Pixel*Frame) : 0.289
Stream size : 1.06 GiB (78%)
Writing library : XviD 1.2.1 (UTC 2008-12-04)
Audio
ID : 1
Format : AC-3
Format/Info : Audio Coding 3
Mode extension : CM (complete main)
Codec ID : 2000
Duration : 1h 36mn
Bit rate mode : Constant
Bit rate : 448 Kbps
Channel(s) : 6 channels
Channel positions : Front: L C R, Side: L R, LFE
Sampling rate : 48.0 KHz
Bit depth : 16 bits
Stream size : 308 MiB (22%)
Alignment : Aligned on interleaves
Interleave, duration : 96 ms (2.40 video frames)
Interleave, preload duration : 96 ms

Скриншоты





Последний раз редактировалось: Mr_ALo (2012-01-23 21:35), всего редактировалось 2 раз(а)

Создавать темы 11-Дек-2010 09:45

[Профиль]  [ЛС] 

lord-david

Стаж: 7 лет 2 месяца

Сообщений: 175

Симпатии: 2

Mr_ALo второй и третий скрин чет одинаковые))

Создавать темы 11-Дек-2010 10:05

[Профиль]  [ЛС] 

ziyod

Стаж: 7 лет 6 месяцев

Сообщений: 367

Симпатии: 60

Mr_ALo скрины добавь только...

Создавать темы 11-Дек-2010 10:20

[Профиль]  [ЛС] 

Mr_ALo ®

Стаж: 7 лет 9 месяцев

Сообщений: 367

Симпатии: 20

забыл посмотреть исправил

Создавать темы 11-Дек-2010 18:04

[Профиль]  [ЛС] 

IgoreK

Стаж: 7 лет 9 месяцев

Сообщений: 42

Сидов: 7 [ 2 KB/s ]
Ребята вы че прикалываетесь или как?ппц сиды я болдю

Создавать темы 27-Дек-2010 20:21

[Профиль]  [ЛС] 

d_damir

Стаж: 6 лет 11 месяцев

Сообщений: 2

дораздайте пожалуйста!!!

Создавать темы 20-Авг-2011 18:18

[Профиль]  [ЛС] 

Adham

Стаж: 6 лет 11 месяцев

Сообщений: 72

Симпатии: 11

Докачать можно или как? Сид вернись на раздачу пожалуйста!

Создавать темы 25-Авг-2011 01:18

[Профиль]  [ЛС] 

Kaleriya

Стаж: 5 лет 5 месяцев

Сообщений: 19

Встаньте на раздачу пожалуйста !

Создавать темы 23-Июн-2012 13:02

[Профиль]  [ЛС] 

Kaleriya

Стаж: 5 лет 5 месяцев

Сообщений: 19

Пожалуйста прибавьте скорость, тянется на 0.1-0.5 !

Создавать темы 04-Июл-2012 10:14

[Профиль]  [ЛС] 

Kaleriya

Стаж: 5 лет 5 месяцев

Сообщений: 19

Пожалуйста прибавьте скорость, осталось докачать 15% , при такой скорости как сейчас это на несколько дней ещё !

Создавать темы 20-Июл-2012 13:58

[Профиль]  [ЛС] 

Lion31

Стаж: 6 лет 7 месяцев

Сообщений: 83

Симпатии: 2

Пожалуйста прибавьте скорость, осталось докачать 5%

Создавать темы 27-Фев-2013 13:53

[Профиль]  [ЛС] 
Показать сообщения:    
Ответить на тему

Текущее время: 23-Сен 01:46

Часовой пояс: UTC + 5



Вы не можете начинать темы
Вы не можете отвечать на сообщения
Вы не можете редактировать свои сообщения
Вы не можете удалять свои сообщения
Вы не можете голосовать в опросах
Вы не можете прикреплять файлы к сообщениям
Вы не можете скачивать файлы