Новая Земля (Александр Мельников) [2008 г., фантастика, боевик, DVDRip]

Ответить на тему
 

Aziz1314 ®

Стаж: 7 лет 3 месяца

Сообщений: 331

Симпатии: 13

Новая Земля Год выпуска: 2008
Жанр: фантастика, боевик
Продолжительность: 01:54:46
Режиссер: Александр Мельников
В ролях: Константин Лавроненко, Марат Башаров, Ингеборга Дапкунайте, Сергей Жигунов, Сергей Колтаков, Александр Самойленко, Николай Стоцкий, Андрей Феськов, Павел Сборщиков, Евгений Титов и др.
Описание: Во всем мире отменена смертная казнь. Тюрьмы переполнены. Все больше средств требуется для содержания осужденных на пожизненное заключение. Международные организации принимают решение о проведении эксперимента. Россия предоставляет необитаемый остров а севере, где обустраивается небольшое поселение. На остров вывозится первая экспериментальная партия заключенных из России. Им предлагают новую жизнь. Они предоставлены сами себе. Поселенцы начинают жить по закону «Последний — мёртвый». Главный герой фильма пытается противостоять этому.
Доп. информация: Бюджет: $12 млн
Качество: DVDRip
Формат: AVI
Видео кодек: DivX
Аудио кодек: MP3
Видео: DivX(688x288),746 Kbps
Аудио: MP3(Stereo,48000Hz),96.0 Kbps

MediaInfo

Format : AVI
Format/Info : Audio Video Interleave
File size : 699 MiB
Duration : 1h 54mn
Overall bit rate : 852 Kbps
Writing application : FairUse Wizard - http://fairusewizard.com
Writing library : The best and REALLY easy backup tool
Video
ID : 0
Format : MPEG-4 Visual
Format settings, BVOP : No
Format settings, QPel : No
Format settings, GMC : No warppoints
Format settings, Matrix : Default (H.263)
Codec ID : DX50
Codec ID/Hint : DivX 5
Duration : 1h 54mn
Bit rate : 746 Kbps
Width : 688 pixels
Height : 288 pixels
Display aspect ratio : 2.35:1
Frame rate : 25.000 fps
Color space : YUV
Chroma subsampling : 4:2:0
Bit depth : 8 bits
Scan type : Progressive
Bits/(Pixel*Frame) : 0.151
Stream size : 612 MiB (88%)
Writing library : DivX 5.2.1 (WaffleDay) (UTC 2004-09-08)
Audio
ID : 1
Format : MPEG Audio
Format version : Version 1
Format profile : Layer 3
Mode : Joint stereo
Mode extension : MS Stereo
Codec ID : 55
Codec ID/Hint : MP3
Duration : 1h 54mn
Bit rate mode : Constant
Bit rate : 96.0 Kbps
Channel(s) : 2 channels
Sampling rate : 48.0 KHz
Stream size : 78.8 MiB (11%)
Alignment : Aligned on interleaves
Interleave, duration : 40 ms (1.00 video frame)
Interleave, preload duration : 504 ms
Writing library : LAME3.97b
Encoding settings : -m j -V 4 -q 2 -lowpass 16 -b 96

Скриншоты




Создавать темы 18-Дек-2010 22:43

[Профиль]  [ЛС] 

ustas

Стаж: 8 лет 10 месяцев

Сообщений: 53

Симпатии: 17

отличная киношка

Создавать темы 19-Дек-2010 00:55

[Профиль]  [ЛС] 

Aziz1314 ®

Стаж: 7 лет 3 месяца

Сообщений: 331

Симпатии: 13

отличная киношка
Мне тоже понравилась! az

Создавать темы 19-Дек-2010 01:17

[Профиль]  [ЛС] 

nor_7166

Стаж: 6 лет 10 месяцев

Сообщений: 28

филм просто супер.... спс режисеру... ay ay ay ay

Создавать темы 30-Окт-2011 00:07

[Профиль]  [ЛС] 

Джамшид

Стаж: 7 лет 7 месяцев

Сообщений: 136

Симпатии: 14

Фильм один из шедевров российского кинематографа. Реально чувствуешь себя на месте геров и говоря по правде (не дай Бог, конечно), окажись на их месте я бы не знал как бы выживал там...воПщем, заЧетнО bf

Создавать темы 30-Окт-2011 20:25

[Профиль]  [ЛС] 

Senat

Стаж: 6 лет 9 месяцев

Сообщений: 251

Aziz1314
раздача будет или нет?

Создавать темы 01-Ноя-2011 17:23

[Профиль]  [ЛС] 

Лёнчик

Стаж: 6 лет 7 месяцев

Сообщений: 34

Добавьте скорость az

Создавать темы 23-Ноя-2011 09:07

[Профиль]  [ЛС] 

Лёнчик

Стаж: 6 лет 7 месяцев

Сообщений: 34

Прибавьте скорость

Создавать темы 26-Ноя-2011 21:07

[Профиль]  [ЛС] 

bratanyes

Стаж: 6 лет 10 месяцев

Сообщений: 12

Просто нету слов, надо смотреть фильм.
Я в шоке от просмотра.

Создавать темы 17-Дек-2011 23:35

[Профиль]  [ЛС] 

Kaleriya

Стаж: 5 лет 7 месяцев

Сообщений: 19

большое спасибо

Создавать темы 04-Май-2012 14:08

[Профиль]  [ЛС] 

Panky

Стаж: 5 лет

Сообщений: 46

Симпатии: 1

чёта не качается 3-день 0 процентов

Создавать темы 24-Фев-2014 08:05

[Профиль]  [ЛС] 

Panky

Стаж: 5 лет

Сообщений: 46

Симпатии: 1

не существующие пири не дают позвать скачавших

Создавать темы 24-Фев-2014 08:38

[Профиль]  [ЛС] 

Panky

Стаж: 5 лет

Сообщений: 46

Симпатии: 1

где же 90 скачавшие чо никто не реагирует на ЛС

Создавать темы 28-Фев-2014 17:07

[Профиль]  [ЛС] 
Показать сообщения:    
Ответить на тему

Текущее время: 24-Ноя 23:43

Часовой пояс: UTC + 5



Вы не можете начинать темы
Вы не можете отвечать на сообщения
Вы не можете редактировать свои сообщения
Вы не можете удалять свои сообщения
Вы не можете голосовать в опросах
Вы не можете прикреплять файлы к сообщениям
Вы не можете скачивать файлы