Алиса в стране чудес в 3D / Alice in Wonderland 3D (Тим Бёртон) [2010 г.,фэнтези, приключения, семейный BDRip]

Страницы :  1, 2  След.

Ответить на тему
 

botir84 ®

Стаж: 6 лет 9 месяцев

Сообщений: 7

Алиса в стране чудес в 3D / Alice in Wonderland 3D

Год выпуска: 2010
Страна: США
Жанр: фэнтези, приключения, семейный
Продолжительность: 150 мин
Перевод: Профессиональный (полное дублирование)Лицензия

Режиссер: Тим Бёртон
В ролях:
Джонни Депп
Энн Хэтэуэй
Майкл Шин
Хелена Бонем Картер
Алан Рикман
Миа Васиковска
Стивен Фрай
Криспин Гловер
Кристофер Ли
Мэтт Лукас

Описание: Жизнь 19-летней Алисы Кингсли принимает неожиданный оборот. На викторианской вечеринке, устроенной в её честь, Алисе делает предложение Хэмиш, богатый, но глупый сын лорда и леди Эскот. Не дав ответа, девушка убегает и идёт за кроликом, замеченным ею на лужайке. Кролик как кролик, вот только он одет в камзол и всё время смотрит на карманные часы.
Доп. информация: IMAX вертикальная стерео-пара просмотр с помошью Stereoscopic Player или PowerDVD 10 3D Любые стерео очки. подойдут и Красно-синие
Качество: BDRip
Формат: MKV
Видео кодек: AVS
Аудио кодек: AC3
Видео: Bit rate : 6 567 Kbps Width : 1 280 pixels Height : 1 440 pixels Frame rate : 23.976 fps
Аудио: Bit rate : 640 Kbps Channel(s) : 6 channels Sampling rate : 48.0 KHz Language : Russian
Аудио: Bit rate : 1 510 Kbps Channel(s) : 6 channels Sampling rate : 48.0 KHz Language : English

Скриншоты


Релиз подготовлен DJ-ALLIGATORом


Последний раз редактировалось: botir84 (2010-12-24 00:57), всего редактировалось 3 раз(а)

Создавать темы 23-Дек-2010 19:15

[Профиль]  [ЛС] 

bahosh

Стаж: 7 лет 3 месяца

Сообщений: 91

Симпатии: 2

Правила оформления раздач в этом разделе
* В описании обязательно должно присутствовать обозначение качества раздающегося материала, формат, а также параметры аудио и видео потоков.
* Сриншоты при качестве фильма ниже DVDRip выкладывать обязательно. На качество DVDRip раздающий обязан выложить скриншоты по первому требованию пользователей ресурса. Скриншот должен быть сделан непосредственно с того видео файла, который раздаётся!
Сделайте скрин с источника, выложите тех данные релиза и почитайте Обозначения качества видео.
Как получить информацию по видеофайлу читайте ТУТ
Как сделать скриншот и залить на бесплатный хост ТУТ
Обозначения качества видео (подробная характеристика)

Создавать темы 23-Дек-2010 19:53

[Профиль]  [ЛС] 

IIy3blPb

Стаж: 6 лет 9 месяцев

Сообщений: 86

Симпатии: 4

оформил криво))) давай быстрее поправь я на ночь поставлю качать

Создавать темы 23-Дек-2010 21:52

[Профиль]  [ЛС] 

dj-alligator

Стаж: 6 лет 11 месяцев

Сообщений: 94

Симпатии: 4

botir84 ты новичок по этому те немного поможем. вот тебе

медиа инфо

Video #1
ID : 1
Format : AVC
Format/Info : Advanced Video Codec
Format profile : [email protected]
Format settings, CABAC : Yes
Format settings, ReFrames : 4 frames
Muxing mode : Container [email protected]
Codec ID : V_MPEG4/ISO/AVC
Duration : 1h 48mn
Bit rate : 6 567 Kbps
Width : 1 280 pixels
Height : 1 440 pixels
Display aspect ratio : 0.889
Frame rate : 23.976 fps
Resolution : 24 bits
Colorimetry : 4:2:0
Scan type : Progressive
Bits/(Pixel*Frame) : 0.149
Stream size : 4.98 GiB (74%)
Writing library : x264 core 105 r1724 b02df7b
Audio #2
ID : 2
Format : AC-3
Format/Info : Audio Coding 3
Codec ID : A_AC3
Duration : 1h 48mn
Bit rate mode : Constant
Bit rate : 640 Kbps
Channel(s) : 6 channels
Channel positions : Front: L C R, Surround: L R, LFE
Sampling rate : 48.0 KHz
Stream size : 497 MiB (7%)
Language : Russian
Audio #3
ID : 3
Format : DTS
Format/Info : Digital Theater Systems
Format profile : ES
Codec ID : A_DTS
Duration : 1h 48mn
Bit rate mode : Constant
Bit rate : 1 510 Kbps
Channel(s) : 6 channels
Channel positions : Front: L C R, Surround: L R, LFE
Sampling rate : 48.0 KHz
Resolution : 24 bits
Stream size : 1.15 GiB (17%)
Language : English
добавлено спустя 3 минуты 36 секунд:
BDRip IMAX вертикальная стерео-пара просмотр с помошью Stereoscopic Player или PowerDVD 10 3D
надеюсь ни кто не против что я не много помог.


Последний раз редактировалось: dj-alligator (2010-12-23 23:37), всего редактировалось 1 раз

Создавать темы 23-Дек-2010 23:37

[Профиль]  [ЛС] 

rbhome

Стаж: 8 лет 8 месяцев

Сообщений: 134

Симпатии: 5

botir84
оформи правильно

Создавать темы 23-Дек-2010 23:48

[Профиль]  [ЛС] 

dj-alligator

Стаж: 6 лет 11 месяцев

Сообщений: 94

Симпатии: 4

rbhome минутку
добавлено спустя 18 минут 48 секунд:
botir84
оформи правильно
Все шеф проверь пожалуйста :) :ad:


Последний раз редактировалось: dj-alligator (2010-12-24 00:27), всего редактировалось 1 раз

Создавать темы 24-Дек-2010 00:27

[Профиль]  [ЛС] 

rbhome

Стаж: 8 лет 8 месяцев

Сообщений: 134

Симпатии: 5

скрины пока не видно, видать img.uz упал. даже не знаю есть ли у над другой хостинг изображений.

Создавать темы 24-Дек-2010 01:09

[Профиль]  [ЛС] 

dj-alligator

Стаж: 6 лет 11 месяцев

Сообщений: 94

Симпатии: 4

img.uz помню сутки не работал не давно
добавлено спустя 27 минут 41 секунда:
rbhome может озолотиш раздачу??


Последний раз редактировалось: dj-alligator (2010-12-24 01:47), всего редактировалось 1 раз

Создавать темы 24-Дек-2010 01:47

[Профиль]  [ЛС] 

nigga22480

Стаж: 7 лет 4 месяца

Сообщений: 211

Симпатии: 13

Релиз что надо озолотите!!!

Создавать темы 24-Дек-2010 17:29

[Профиль]  [ЛС] 

dj-alligator

Стаж: 6 лет 11 месяцев

Сообщений: 94

Симпатии: 4

По ходу модераторы только свои раздачи и ставят золотимы. А простому народу можно и так.

Создавать темы 24-Дек-2010 19:22

[Профиль]  [ЛС] 

rbhome

Стаж: 8 лет 8 месяцев

Сообщений: 134

Симпатии: 5

dj-alligator
не в раздачах дело.
Золото есть смысл ставить если объем очень большой и раздача не очень популярная. Те раздачи трудно скачать и тем более раздавать. А на эту желающих достаточно. На что то ведь рейтинг тратить надо.
добавлено спустя 3 минуты 53 секунды:
dj-alligator
nigga22480
Золотая раздача не уменьшает рейтинг - скаченное не считается. Вам то о чем беспокоиться? Рейтинг у одного 2 у другого 7.


Последний раз редактировалось: rbhome (2010-12-24 22:28), всего редактировалось 1 раз

Создавать темы 24-Дек-2010 22:28

[Профиль]  [ЛС] 

dj-alligator

Стаж: 6 лет 11 месяцев

Сообщений: 94

Симпатии: 4

rbhome убедил ab

Создавать темы 25-Дек-2010 18:38

[Профиль]  [ЛС] 

IIy3blPb

Стаж: 6 лет 9 месяцев

Сообщений: 86

Симпатии: 4

dj-alligator
слушай че делать не соеденяется картинка я пытался обновил стереоскопик плаер но не знаю КАК картинку свести что бы 1 была.........помоги плиз

Создавать темы 25-Дек-2010 21:40

[Профиль]  [ЛС] 

dj-alligator

Стаж: 6 лет 11 месяцев

Сообщений: 94

Симпатии: 4

IIy3blPb попробуй на повер ДВД или поиши в поисковике проблему

Создавать темы 26-Дек-2010 23:33

[Профиль]  [ЛС] 

Топик был перенесен из форума HD\BDRip в форум 3D

ziyod

Создавать темы 28-Дек-2010 08:41

 
Показать сообщения:    
Ответить на тему

Текущее время: 22-Сен 09:39

Часовой пояс: UTC + 5



Вы не можете начинать темы
Вы не можете отвечать на сообщения
Вы не можете редактировать свои сообщения
Вы не можете удалять свои сообщения
Вы не можете голосовать в опросах
Вы не можете прикреплять файлы к сообщениям
Вы не можете скачивать файлы