Гарри Поттер и Дары Смерти (Трейлер) / Harry Potter and the Deathly Hallows (Дэвид Йэтс) [2010 г., Фэнтези, детектив, приключения, BDRip]

Страницы :  1, 2  След.

Ответить на тему
 

IIy3blPb ®

Стаж: 6 лет 9 месяцев

Сообщений: 86

Симпатии: 4

Гарри Поттер и Дары Смерти (Трейлер) / Harry Potter and the Deathly Hallows
Год выпуска: 2010
Страна: США, Великобритания
Жанр: Фэнтези, детектив, приключения
Продолжительность: 00:02:24
Перевод: Отсутствует
Режиссер: Дэвид Йэтс
В ролях: Дэниэл Рэдклифф, Руперт Гринт, Эмма Уотсон, Том Фелтон, Бонни Райт, Алан Рикман, Рэйф Файнс, Хелена Бонем Картер, Майкл Гэмбон, Брендан Глисон
Описание: Гарри Поттера ждёт самое страшное испытание в жизни — смертельная схватка с Волан-де-Мортом. Ждать помощи не от кого — Гарри одинок, как никогда… Друзья и враги Гарри предстают в совершенно неожиданном свете. Граница между Добром и Злом становится всё призрачнее…
Доп. информация: Анаглиф красно / сине-зеленый
Качество: BDRip
Формат: mp4
Видео кодек: avc1
Аудио кодек: 40
Видео: MPEG4 Video (H264) 1280x552 18.00fps 2021 Kbps
Аудио: AAC 44100Hz stereo 1411kbps 125 Kbps

Скриншоты




Media Info

Format : MPEG-4
Format profile : Base Media / Version 2
Codec ID : mp42
File size : 36.9 MiB
Duration : 2mn 24s
Overall bit rate : 2 148 Kbps
Encoded date : UTC 2010-07-21 08:09:52
Tagged date : UTC 2010-07-21 08:09:52
gsst : 0
gstd : 144728
gssd : BADC20623HH1283193222403936
gshh : v23.lscache8.c.youtube.com
Video
ID : 2
Format : AVC
Format/Info : Advanced Video Codec
Format profile : [email protected]
Format settings, CABAC : Yes
Format settings, ReFrames : 1 frame
Codec ID : avc1
Codec ID/Info : Advanced Video Coding
Duration : 2mn 24s
Bit rate mode : Variable
Bit rate : 2 021 Kbps
Maximum bit rate : 8 388 Kbps
Width : 1 280 pixels
Height : 552 pixels
Display aspect ratio : 2.35:1
Frame rate mode : Constant
Frame rate : 18.000 fps
Color space : YUV
Chroma subsampling : 4:2:0
Bit depth : 8 bits
Scan type : Progressive
Bits/(Pixel*Frame) : 0.159
Stream size : 34.7 MiB (94%)
Title : (C) 2007 Google Inc. v08.13.2007.
Encoded date : UTC 2010-07-21 08:09:52
Tagged date : UTC 2010-07-21 08:09:53
Audio
ID : 1
Format : AAC
Format/Info : Advanced Audio Codec
Format version : Version 4
Format profile : LC
Format settings, SBR : No
Codec ID : 40
Duration : 2mn 24s
Bit rate mode : Variable
Bit rate : 125 Kbps
Maximum bit rate : 204 Kbps
Channel(s) : 2 channels
Channel positions : Front: L R
Sampling rate : 44.1 KHz
Stream size : 2.16 MiB (6%)
Title : (C) 2007 Google Inc. v08.13.2007.
Encoded date : UTC 2010-07-21 08:09:52
Tagged date : UTC 2010-07-21 08:09:53

Создавать темы 01-Янв-2011 10:57

[Профиль]  [ЛС] 

ziyod

Стаж: 7 лет 6 месяцев

Сообщений: 367

Симпатии: 60

IIy3blPb скрины с оригинала? Внизу есть watermark ютуба...

Создавать темы 01-Янв-2011 13:13

[Профиль]  [ЛС] 

IIy3blPb ®

Стаж: 6 лет 9 месяцев

Сообщений: 86

Симпатии: 4

ziyod
с видео!!!

Создавать темы 01-Янв-2011 13:48

[Профиль]  [ЛС] 

elena1518

Стаж: 6 лет 9 месяцев

Сообщений: 3

А на каком языке этот фильм просто написано что перевод отсутствует?????

Создавать темы 02-Янв-2011 11:23

[Профиль]  [ЛС] 

IIy3blPb ®

Стаж: 6 лет 9 месяцев

Сообщений: 86

Симпатии: 4

на АНГЛ это не фильм о ТРЕЙЛЕР (Фильм о ФИЛЬМЕ)

Создавать темы 02-Янв-2011 11:42

[Профиль]  [ЛС] 

IIy3blPb ®

Стаж: 6 лет 9 месяцев

Сообщений: 86

Симпатии: 4

Размер:37 MB
и че что 37 мб ???

Создавать темы 05-Янв-2011 19:18

[Профиль]  [ЛС] 

pyro_blast

Стаж: 6 лет 9 месяцев

Сообщений: 9

Судя по скриншотам - это псевдо 3D (Одну и ту же картинку просто раздвоили) не советовал бы качать, эффекта не будет. А вот Обитель Зла 4, не смотря на то что фильм - анаглиф, я под впечатлением. Стереоизображение на уровне.

Создавать темы 05-Янв-2011 19:50

[Профиль]  [ЛС] 

IIy3blPb ®

Стаж: 6 лет 9 месяцев

Сообщений: 86

Симпатии: 4

pyro_blast
чувак да что качать это просто трейлер же 37 мб ппц ты сказал буд то это 20гиговый фильм мдя....

Создавать темы 05-Янв-2011 21:30

[Профиль]  [ЛС] 

pyro_blast

Стаж: 6 лет 9 месяцев

Сообщений: 9

pyro_blast
чувак да что качать это просто трейлер же 37 мб ппц ты сказал буд то это 20гиговый фильм мдя....
Во первых , где я сказал будто это 20 гигов фильма? Я размер вообще не уточнял. А во вторых тебе наверное офигенно, мегабит скорость, а пользователям ГС, в тас иксе. на скорости 256 кб/сек, качать придётся полчаса эти 37 мб. Такие дела.

Создавать темы 08-Янв-2011 13:41

[Профиль]  [ЛС] 

DeadMoroz

Стаж: 6 лет 8 месяцев

Сообщений: 4

pyro_blast не нравится - не качай! В принципе даже на маленькой скорости можно скачать чтобы просто проверить, а не тупо спорить кто прав, а кто не прав! Кому интересно - скачают!

Создавать темы 08-Янв-2011 13:50

[Профиль]  [ЛС] 

IIy3blPb ®

Стаж: 6 лет 9 месяцев

Сообщений: 86

Симпатии: 4

pyro_blast
ни че с тобой не будет если ты будешь качать я сам по 10-15 кб.сек качаю фильмы которые до 7 гб весят не ору же....

Создавать темы 08-Янв-2011 19:06

[Профиль]  [ЛС] 

ka4ek

Стаж: 6 лет 8 месяцев

Сообщений: 11

скоростии

Создавать темы 19-Янв-2011 23:27

[Профиль]  [ЛС] 

Gerrard

Стаж: 6 лет 6 месяцев

Сообщений: 23

Симпатии: 1

да качать не стоит..даже для тех кто хочет проверить 3D эфект.... проктически его не видно..

Создавать темы 04-Мар-2011 22:59

[Профиль]  [ЛС] 

Faxa

Стаж: 7 лет 4 месяца

Сообщений: 115

Симпатии: 4

Модеры кажется тут у вас ошибочка вышла или я что то путаю
Данному релизу место в разделе видео ролики, а он тут у вас в 3D залитый


Последний раз редактировалось: Faxa (2011-03-04 23:08), всего редактировалось 2 раз(а)

Создавать темы 04-Мар-2011 23:08

[Профиль]  [ЛС] 

dj-alligator

Стаж: 6 лет 11 месяцев

Сообщений: 94

Симпатии: 4

Faxa ты какой конкретно файл имееш введу? твоя ссылка на раздел Видео ролики направлен. укажи конкретно какой файл ок

Создавать темы 04-Мар-2011 23:49

[Профиль]  [ЛС] 
Показать сообщения:    
Ответить на тему

Текущее время: 25-Сен 14:52

Часовой пояс: UTC + 5



Вы не можете начинать темы
Вы не можете отвечать на сообщения
Вы не можете редактировать свои сообщения
Вы не можете удалять свои сообщения
Вы не можете голосовать в опросах
Вы не можете прикреплять файлы к сообщениям
Вы не можете скачивать файлы