Большое путешествие вглубь океанов 3D: Возвращение / Turtle: The Incredible Journey (Ник Стрингер) [2009 г., Документальный, DVDRip]

Ответить на тему
 

IIy3blPb ®

Стаж: 7 лет

Сообщений: 86

Симпатии: 4

Большое путешествие вглубь океанов 3D: Возвращение / Turtle: The Incredible Journey
Год выпуска: 2009
Страна: Германия, Великобритания, Австрия
Жанр: Документальный
Продолжительность: 01:11:54
Перевод: Профессиональный (двухголосый)
Режиссер: Ник Стрингер
В ролях: Миранда Ричардсон
Дэниэл Брэга
Ханнелоре Эльснер
Описание: Соленые брызги, крики чаек, шум прибрежных волн: все любят море и мечтают погрузиться в этот прекрасный, удивительный и непостижимый мир океана…
Главный герой — морская черепаха — зовет в дорогу и станет вашим гидом в потрясающем путешествии между континентами в бурных волнах мирового океана. Вас ждут красочные коралловые рифы, схватки с акулами, редкие обитатели глубоководья, пестрый мир жарких тропиков и пугающий холод антарктических льдов. Сколько загадок и тайн хранит морская пучина! Клады затонувших кораблей и аномалия Бермудского треугольника — это ничто в сравнении с тем, что вам предстоит узнать. В этом удивительном путешествии вам откроется вся мощь Океана и хрупкость этого сложного подводного мира, который так нуждается в нашей защите!
Доп. информация: Анаглиф красно / сине - зеленый
Перевод двух голосый т.к. в начале 1 фразу мужчина говорит все остольное рассказывает женщина !
Качество: DVDRip
Формат: AVI
Видео кодек: XviD
Аудио кодек: AC3
Видео: Xvid 720x400 25.00fps 2330 Kbps
Аудио: Dolby AC3 48000Hz 6ch 384kbps

Скриншоты



Media Info

Format : AVI
Format/Info : Audio Video Interleave
File size : 1.37 GiB
Duration : 1h 11mn
Overall bit rate : 2 724 Kbps
Writing application : VirtualDubMod 1.5.4.1 (build 2178/release)
Writing library : VirtualDubMod build 2178/release
Video
ID : 0
Format : MPEG-4 Visual
Format profile : [email protected]
Format settings, BVOP : No
Format settings, QPel : No
Format settings, GMC : No warppoints
Format settings, Matrix : Default (H.263)
Codec ID : XVID
Codec ID/Hint : XviD
Duration : 1h 11mn
Bit rate : 2 330 Kbps
Width : 720 pixels
Height : 400 pixels
Display aspect ratio : 16:9
Frame rate : 25.000 fps
Color space : YUV
Chroma subsampling : 4:2:0
Bit depth : 8 bits
Scan type : Progressive
Bits/(Pixel*Frame) : 0.324
Stream size : 1.17 GiB (86%)
Writing library : XviD 1.2.1 (UTC 2008-12-04)
Audio
ID : 1
Format : AC-3
Format/Info : Audio Coding 3
Mode extension : CM (complete main)
Codec ID : 2000
Duration : 1h 11mn
Bit rate mode : Constant
Bit rate : 384 Kbps
Channel(s) : 6 channels
Channel positions : Front: L C R, Side: L R, LFE
Sampling rate : 48.0 KHz
Bit depth : 16 bits
Stream size : 197 MiB (14%)
Alignment : Split accross interleaves
Interleave, duration : 40 ms (1.00 video frame)
Interleave, preload duration : 500 ms

Создавать темы 03-Янв-2011 13:19

[Профиль]  [ЛС] 

IIy3blPb ®

Стаж: 7 лет

Сообщений: 86

Симпатии: 4

руками нажми на скачать пото в торрент прогу пихни

Создавать темы 05-Янв-2011 05:22

[Профиль]  [ЛС] 

bobsansaba

Стаж: 4 года

Сообщений: 45

Симпатии: 4

это по твоему путешествие

Создавать темы 19-Янв-2014 06:25

[Профиль]  [ЛС] 

ararat10

Стаж: 4 года 1 месяц

Сообщений: 9

Народ,встаньте,кто нибудь на раздачу,пожалуйста

Создавать темы 14-Фев-2014 08:53

[Профиль]  [ЛС] 
Показать сообщения:    
Ответить на тему

Текущее время: 11-Дек 10:44

Часовой пояс: UTC + 5



Вы не можете начинать темы
Вы не можете отвечать на сообщения
Вы не можете редактировать свои сообщения
Вы не можете удалять свои сообщения
Вы не можете голосовать в опросах
Вы не можете прикреплять файлы к сообщениям
Вы не можете скачивать файлы