Ад Данте / Dante`s Inferno (Boris Acosta) [2010 г.,мультфильм,приключения,ужасы,драма,анимация, DVDRip]

Страницы :  1, 2  След.

Ответить на тему
 

mikelangello ®

Стаж: 7 лет 1 месяц

Сообщений: 125

Симпатии: 2

Ад Данте / Dante`s Inferno
Год выпуска: 2010
Жанр: мульфильм,приключения,ужасы,драма,анимация
Продолжительность: 1:22:36
Перевод: Профессиональный (одноголосый)
Режиссер: Boris Acosta
В ролях: Джефф Конэвей, Сильвия Коллока, Винсент Спано, Vittorio Matteucci, Riccardo Pratesi, Лесли Гарза Ривера
Страна: США
Описание: Средь ужаса и мук, тропою адских пыток, испытаний, Данте спешит спасти возлюбленную Беатрис, освободить невинную душу её из рук Люцифера...Оживший ад Данте - короткий мультипликационный фильм , который рассказывает о поездке Данте Алигиери, через первую дверь загробной жизни Ада. Это - неотразимый фильм с четырьмя частями. Данте управляется его героем Вирджилем через каждый круг Ада и их подразделений, пока они не достигают центра Земли и непоявляються другом полушарии в "Чистилище". Это показывает более чем 50 оригинальных цветных иллюстраций от книжки комиксов Ада наступающего Данте и до ряда журнала, соединенный в ряду скрепкой мультипликации, которые восхитят молодую аудиторию.
По мотивам "Божественной комедии" и консольной игры "Оживший Ад Данте"
Качество: DVDRip
Формат: AVI
Видео кодек: Другой MPEG4
Аудио кодек: MP3
Видео: 352x240 932Kbps 25.00fps
Аудио: MPEG Audio 44.1KHz Stereo 64Kbps

Скриншоты

Media Info

Format : AVI
Format/Info : Audio Video Interleave
File size : 594 MiB
Duration : 1h 22mn
Overall bit rate : 1 005 Kbps
Writing application : Lavf51.12.1
Writing library : VirtualDub build 28312/release
Video
ID : 0
Format : MPEG-4 Visual
Codec ID : MP42
Codec ID/Info : Microsoft MPEG-4 v2 (pre-standard)
Codec ID/Hint : Microsoft
Duration : 1h 22mn
Bit rate : 932 Kbps
Width : 352 pixels
Height : 240 pixels
Display aspect ratio : 3:2
Frame rate : 25.000 fps
Standard : NTSC
Bits/(Pixel*Frame) : 0.441
Stream size : 550 MiB (93%)
Audio
ID : 1
Format : MPEG Audio
Format version : Version 1
Format profile : Layer 3
Mode : Joint stereo
Mode extension : MS Stereo
Codec ID : 55
Codec ID/Hint : MP3
Duration : 1h 22mn
Bit rate mode : Constant
Bit rate : 64.0 Kbps
Channel(s) : 2 channels
Sampling rate : 44.1 KHz
Stream size : 37.8 MiB (6%)
Alignment : Split accross interleaves
Interleave, duration : 40 ms (1.00 video frame)
Interleave, preload duration : 500 ms


Последний раз редактировалось: mikelangello (2011-01-08 00:31), всего редактировалось 3 раз(а)

Создавать темы 07-Янв-2011 11:33

[Профиль]  [ЛС] 

Топик был перенесен из форума Мультфильмы в форум Аниме

basma4

Создавать темы 07-Янв-2011 12:51

 

_St_

Стаж: 6 лет 11 месяцев

Сообщений: 43

Это не аниме!
это анимационный фильм по мотивам одноименной игры.
верните его обратно в раздел "Мультфильмы".
не знаю откуда те данные что в первом посту, но вот настоящие.
Название: Ад Данте
Оригинальное название: Dante's Inferno Animated
Жанр: Анимация
Режиссёр: Boris Acosta
В ролях: Джефф Конэвей,Сильвия Коллока,Винсент Спано,Vittorio Matteucci,Riccardo Pratesi,Лесли Гарза Ривера
О фильме:
Оживший ад Данте - короткий мультипликационный фильм , который рассказывает о поездке Данте Алигиери, через первую дверь загробной жизни Ада. Это - неотразимый фильм с четырьмя частями. Данте управляется его героем Вирджилем через каждый круг Ада и их подразделений, пока они не достигают центра Земли и непоявляються другом полушарии в "Чистилище". Это показывает более чем 50 оригинальных цветных иллюстраций от книжки комиксов Ада наступающего Данте и до ряда журнала, соединенный в ряду скрепкой мультипликации, которые восхитят молодую аудиторию.
Выпущено: США
Продолжительность: 01:28:08

Создавать темы 07-Янв-2011 13:13

[Профиль]  [ЛС] 

mikelangello ®

Стаж: 7 лет 1 месяц

Сообщений: 125

Симпатии: 2

Спасибо _St_ изменю данные, я тоже считаю что это мультфильм
...и добавлю твое описание, если ты не возражаешь.
Спасибо

Создавать темы 07-Янв-2011 13:50

[Профиль]  [ЛС] 

_St_

Стаж: 6 лет 11 месяцев

Сообщений: 43

Да конечно не против)
если хотите могу выложить в более лучшем качестве)

Создавать темы 07-Янв-2011 15:09

[Профиль]  [ЛС] 

Djanik

Стаж: 8 лет 9 месяцев

Сообщений: 55

Симпатии: 5

Да конечно не против)
если хотите могу выложить в более лучшем качестве)
есть версия 720 ?? ато ХД и БД на компе виснет нереально ac

Создавать темы 07-Янв-2011 15:33

[Профиль]  [ЛС] 

_St_

Стаж: 6 лет 11 месяцев

Сообщений: 43

Да конечно не против)
если хотите могу выложить в более лучшем качестве)
есть версия 720 ?? ато ХД и БД на компе виснет нереально ac
нет)
есть только
Качество: HDRip
Видео: 704x392, 981kbps
Аудио: Мп 3, 2 ch, 128kbps
Размер: 704 мб
а у тебя что есть HD и ВD ?)))
поделись)

Создавать темы 07-Янв-2011 16:02

[Профиль]  [ЛС] 

Djanik

Стаж: 8 лет 9 месяцев

Сообщений: 55

Симпатии: 5

давай, выложи, тока не тут, а ТАМ )) у меня версия была 1280 на 2,5 гб удалил уже

Создавать темы 07-Янв-2011 16:28

[Профиль]  [ЛС] 

Топик был перенесен из форума Аниме в форум Мультфильмы

mikelangello

Создавать темы 07-Янв-2011 22:17

 

Топик был перенесен из форума Мультфильмы в форум Архив

Pendalf

Создавать темы 02-Янв-2012 03:36

 

Топик был перенесен из форума Архив в форум Мультфильмы

Online

Создавать темы 03-Янв-2012 19:57

 

Топик был перенесен из форума Мультфильмы в форум Мультфильмы

victor0778

Создавать темы 05-Янв-2012 13:39

 

6apb1ra

Стаж: 5 лет 9 месяцев

Сообщений: 16

дайте скорости ребят

Создавать темы 12-Янв-2012 08:15

[Профиль]  [ЛС] 

6apb1ra

Стаж: 5 лет 9 месяцев

Сообщений: 16

дайте скорости пожалуйста

Создавать темы 12-Янв-2012 08:16

[Профиль]  [ЛС] 

mikelangello ®

Стаж: 7 лет 1 месяц

Сообщений: 125

Симпатии: 2

да вроде бы всегда когда в интернете стою на радаче :(

Создавать темы 11-Июн-2012 15:49

[Профиль]  [ЛС] 
Показать сообщения:    
Ответить на тему

Текущее время: 17-Окт 06:49

Часовой пояс: UTC + 5



Вы не можете начинать темы
Вы не можете отвечать на сообщения
Вы не можете редактировать свои сообщения
Вы не можете удалять свои сообщения
Вы не можете голосовать в опросах
Вы не можете прикреплять файлы к сообщениям
Вы не можете скачивать файлы