2210: Конец света? / 2210: The collapse? [2010 г., Документально]

Страницы :  1, 2  След.

Ответить на тему
 

mansurjon ®

Стаж: 7 лет 4 месяца

Сообщений: 103

Симпатии: 3

2210: Конец света? / 2210: The collapse? Год выпуска: 2010
Жанр: Научно-популярные,Тайны и Загадки, документальный
Продолжительность: 01:33:51
Производство: National Geographic Television

Что бы понять что такое конец света, представим, что он уже пришел. Закат всего населения мог быть вызван целым комплексом причин. Какая же из них главная? Многие высокоразвитые цивилизации минувшего времени, прекратили свое существование, а ведь кто в эпоху расцвета Римской империи или цивилизации Майя мог подумать что они рухнут, и все же это произошло. В чем секрет процветания и упадка цивилизаций прошлог? Ученые в 2210 году откапывают руины великой цивилизации. Что смогут они рассказать о причинах гибели того мира, в котором мы сейчас живем?
Видео: Xvid 640x368 25.00fps 1624kbps
Аудио: MPEG Audio Layer 3 48000Hz stereo 128kbps

MediaInfo

General
Complete name : The_collapse-2210.SATRip_.avi
Format : AVI
Format/Info : Audio Video Interleave
File size : 1.16 GiB
Duration : 1h 33mn
Overall bit rate : 1 763 Kbps
Writing application : VirtualDubMod 1.5.10.2 (build 2542/release)
Writing library : VirtualDubMod build 2542/release
Video
ID : 0
Format : MPEG-4 Visual
Format profile : Advanced [email protected]
Format settings, BVOP : Yes
Format settings, QPel : No
Format settings, GMC : No warppoints
Format settings, Matrix : Default (MPEG)
Muxing mode : Packed bitstream
Codec ID : XVID
Codec ID/Hint : XviD
Duration : 1h 33mn
Bit rate : 1 625 Kbps
Width : 640 pixels
Height : 368 pixels
Display aspect ratio : 16:9
Frame rate : 25.000 fps
Resolution : 8 bits
Colorimetry : 4:2:0
Scan type : Progressive
Bits/(Pixel*Frame) : 0.276
Stream size : 1.07 GiB (92%)
Writing library : XviD 1.2.1 (UTC 2008-12-04)
Audio
ID : 1
Format : MPEG Audio
Format version : Version 1
Format profile : Layer 3
Codec ID : 55
Codec ID/Hint : MP3
Duration : 1h 33mn
Bit rate mode : Constant
Bit rate : 128 Kbps
Channel(s) : 2 channels
Sampling rate : 48.0 KHz
Stream size : 85.9 MiB (7%)
Alignment : Aligned on interleaves
Interleave, duration : 40 ms (1.00 video frame)
Interleave, preload duration : 504 ms

Скриншоты





Последний раз редактировалось: mansurjon (2011-01-20 03:13), всего редактировалось 1 раз

Создавать темы 20-Янв-2011 02:53

[Профиль]  [ЛС] 

eminem

Стаж: 6 лет 10 месяцев

Сообщений: 104

Что-то новенькое, вроде бы! Буду качать!!!

Создавать темы 20-Янв-2011 02:58

[Профиль]  [ЛС] 

Наталья

Стаж: 7 лет 4 месяца

Сообщений: 28

Спасибо

Создавать темы 20-Янв-2011 08:12

[Профиль]  [ЛС] 

tatush

Стаж: 6 лет 10 месяцев

Сообщений: 5

Симпатии: 2

язык нету
ap

Создавать темы 03-Фев-2011 19:56

[Профиль]  [ЛС] 

Бонус

Стаж: 6 лет 10 месяцев

Сообщений: 90

Симпатии: 1

Скорости можно? ah

Создавать темы 08-Фев-2011 10:21

[Профиль]  [ЛС] 

Sanlakani

Стаж: 6 лет 8 месяцев

Сообщений: 4

ar

Создавать темы 09-Фев-2011 00:33

[Профиль]  [ЛС] 

IHTISHKA

Стаж: 7 лет 4 месяца

Сообщений: 8

:bb: :bb: :bb: an это просто загадка

Создавать темы 09-Фев-2011 14:59

[Профиль]  [ЛС] 

Khar

Стаж: 6 лет 8 месяцев

Сообщений: 30

Симпатии: 1

Судя по человеческой истории, конец света в самих нас. И примеров тому, на мой взгляд, куча.
А за тему спасибо конечно!

Создавать темы 09-Фев-2011 19:04

[Профиль]  [ЛС] 

Kenex

Стаж: 6 лет 7 месяцев

Сообщений: 71

Симпатии: 2

конец света будет, когда с 21:00 до 9:00 по всему миру будет экономия энергии

Создавать темы 31-Мар-2011 01:55

[Профиль]  [ЛС] 

artem2010

Стаж: 6 лет 10 месяцев

Сообщений: 89

Симпатии: 7

конец света будет, когда с 21:00 до 9:00 по всему миру будет экономия энергии
ag ag ag ag
это точно

Создавать темы 31-Мар-2011 08:44

[Профиль]  [ЛС] 

david

Стаж: 7 лет 3 месяца

Сообщений: 467

Симпатии: 12

ща докачаем и посмотрим, какой там конец света ag
хотя, смотреть точно не придется

Создавать темы 31-Мар-2011 18:36

[Профиль]  [ЛС] 

head

Стаж: 6 лет 8 месяцев

Сообщений: 24

Симпатии: 3

сиды помогите с раздачей плизз

Создавать темы 31-Мар-2011 20:29

[Профиль]  [ЛС] 

david

Стаж: 7 лет 3 месяца

Сообщений: 467

Симпатии: 12

сиды помогите с раздачей плизз
там же 9 сидов и 19 личеров, тебе мало ? ah

Создавать темы 31-Мар-2011 21:23

[Профиль]  [ЛС] 

eeed

Стаж: 6 лет 8 месяцев

Сообщений: 63

Симпатии: 6

на англ. языке?

Создавать темы 31-Мар-2011 21:49

[Профиль]  [ЛС] 

nadezcda

Стаж: 6 лет 10 месяцев

Сообщений: 454

Симпатии: 303

на англ. языке?
С хорошим русским переводом.

Создавать темы 31-Мар-2011 22:50

[Профиль]  [ЛС] 
Показать сообщения:    
Ответить на тему

Текущее время: 22-Сен 02:11

Часовой пояс: UTC + 5



Вы не можете начинать темы
Вы не можете отвечать на сообщения
Вы не можете редактировать свои сообщения
Вы не можете удалять свои сообщения
Вы не можете голосовать в опросах
Вы не можете прикреплять файлы к сообщениям
Вы не можете скачивать файлы