Властелин колец: Кинотрилогия / The Lord of the Rings: The Motion Picture Trilogy [Theatrical Editions] (2001, 2002, 2003) BDRip 720p

Страницы :  1, 2, 3, 4, 5, 6, 7  След.

Ответить на тему
 

InD1gO ®

Стаж: 6 лет 11 месяцев

Сообщений: 81

Симпатии: 3

Властелин колец: Кинотрилогия / The Lord of the Rings: The Motion Picture Trilogy- Год выпуска: 2003
Страна: Германия, США, Новая Зеландия
Жанр: боевик, фэнтези, приключения
Продолжительность: 02:58:24 | 02:59:24 | 03:21:01
Производство: New Line Cinema, The Saul Zaentz Company, WingNut Films-Режиссер: Питер Джексон-В ролях: Элайджа Вуд / Elijah Wood, Шон Эстин / Sean Astin, Вигго Мортенсен / Viggo Mortensen, Иэн МакКеллен / Ian McKellen, Доминик Монахэн / Dominic Monaghan, Билли Бойд / Billy Boyd, Шон Бин / Sean Bean, Орландо Блум / Orlando Bloom, Джон Рис-Дэвис / John Rhys-Davies, Кристофер Ли / Christopher Lee, Сала Бэйкер / Sala Baker, Хьюго Уивинг / Hugo Weaving, Кейт Бланшетт / Cate Blanchett, Лив Тайлер / Liv Tyler, Иэн Холм / Ian Holm-

Властелин колец: Братство кольца

Год выпуска: 2001
Страна: США, Новая Зеландия
Жанр: Боевик, фэнтези, приключения
Продолжительность: 02:58:00
Перевод:
Профессиональный (полное дублирование)
Профессиональный (многоголосый, закадровый)
Авторский (одноголосый, закадровый) |Живов|
Авторский (одноголосый, закадровый) |Гланц|
Авторский (одноголосый, закадровый) |Гоблин|
Авторский (одноголосый, закадровый) |Божья искра #1|
Авторский (одноголосый, закадровый) |Божья искра #2|-Режиссер: Питер Джексон / Peter Jackson
Сценарий: Джон Рональд Руэл Толкиен, Фрэнсис Уолш, Филиппа Бойенс
Продюсер: Питер Джексон, Майкл Линн, Марк Ордески
Оператор: Эндрю Лесни
Композитор: Дэвид Дональдсон, Эния, Элизабет Фрайзер
Бюджет: $93 000 000 + $50 000 000 (маркетинг)
Сборы в мире: $871 368 364
Рейтинг MPAA: PG-13 - Детям до 13 лет просмотр не желателен-КиноПоиск.Ru | Blu-ray.com | IMDb.com-В ролях: Элайджа Вуд / Elijah Wood, Шон Эстин / Sean Astin, Вигго Мортенсен / Viggo Mortensen, Иэн МакКеллен / Ian McKellen, Доминик Монахэн / Dominic Monaghan, Билли Бойд / Billy Boyd, Шон Бин / Sean Bean, Орландо Блум / Orlando Bloom, Джон Рис-Дэвис / John Rhys-Davies, Кристофер Ли / Christopher Lee, Лив Тайлер / Liv Tyler, Хьюго Уивинг / Hugo Weaving-

Сюжет фильма:

Сказания о Средиземье — это хроника Великой войны за Кольцо, войны, длившейся не одну тысячу лет. Тот, кто владел Кольцом, получал власть над всеми живыми тварями, но был обязан служить злу. Тихая деревня, где живут хоббиты.
Волшебник Гэндальф, придя на 111-й день рождения к своему старому другу Бильбо Бэггинсу, начинает вести разговор о кольце, которое Бильбо нашел много лет назад. Это кольцо принадлежало когда-то темному властителю Средиземья Саурону, и оно дает большую власть своему обладателю.
Теперь Саурон хочет вернуть себе власть над Средиземьем. Бильбо отдает найденное кольцо своему племяннику Фродо, который пытается научиться справляться с тем страшным могуществом, которое дает ему кольцо…
-Описание:
Сказания о Средиземье — это хроника Великой войны за Кольцо, войны, длившейся не одну тысячу лет. Тот, кто владел Кольцом, получал власть над всеми живыми тварями, но был обязан служить злу. Тихая деревня, где живут хоббиты. Волшебник Гэндальф, придя на 111-й день рождения к своему старому другу Бильбо Бэггинсу, начинает вести разговор о кольце, которое Бильбо нашел много лет назад. Это кольцо принадлежало когда-то темному властителю Средиземья Саурону, и оно дает большую власть своему обладателю. Теперь Саурон хочет вернуть себе власть над Средиземьем. Бильбо отдает найденное кольцо своему племяннику Фродо, который пытается научиться справляться с тем страшным могуществом, которое дает ему кольцо...-Качество: BDRip | Формат: MKV | Рип: HiDt
Видео: 1280x530 (OAR), x264 (L4.1), 6 031 Kbps, 23.976 fps
Аудио:
1. Русский: 48 kHz, AC3 Dolby Digital, 3/2 (L,C,R,l,r) + LFE ch, ~448.00 kbps avg |Дубляж|
2. Русский: 48 kHz, DTS Audio, 3/2 (L,C,R,l,r) + LFE ch, ~1536.00 kbps avg |Многоголосый|
3. Русский: 48 kHz, DTS Audio, 3/2 (L,C,R,l,r) + LFE ch, ~1536.00 kbps avg |Живов|
4. Русский: 48 kHz, DTS Audio, 3/2 (L,C,R,l,r) + LFE ch, ~1536.00 kbps avg |Гланц|
5. Русский: 48 kHz, DTS Audio, 3/2 (L,C,R,l,r) + LFE ch, ~1536.00 kbps avg |Гоблин|
6. Русский: 48 kHz, AC3 Dolby Digital, 2/0 (L,C), ~192.00 kbps avg |Божья искра #1|
7. Русский: 48 kHz, AC3 Dolby Digital, 2/0 (L,C), ~192.00 kbps avg |Божья искра #2|
8. Английский: 48 kHz, DTS Audio, 3/2 (L,C,R,l,r) + LFE ch, ~1536.00 kbps avg
Субтитры: Английский, Русский, Русские (forced на эльфийскую речь)-

Медиа инфо:

Format                           : Matroska
File size                        : 18.0 GiB
Duration                         : 2h 58mn
Overall bit rate                 : 14.4 Mbps
Movie name                       : crabman release
Encoded date                     : UTC 2010-05-13 05:53:05
Writing application              : mkvmerge v3.3.0 ('Language') built on Mar 24 2010 14:59:24
Writing library                  : libebml v0.8.0 + libmatroska v0.9.0
Cover                            : Yes / Yes / Yes
Video
ID                               : 1
Format                           : AVC
Format/Info                      : Advanced Video Codec
Format profile                   : [email protected]
Format settings, CABAC           : Yes
Format settings, ReFrames        : 8 frames
Codec ID                         : V_MPEG4/ISO/AVC
Duration                         : 2h 58mn
Bit rate                         : 6 031 Kbps
Width                            : 1 280 pixels
Height                           : 530 pixels
Display aspect ratio             : 2.40:1
Frame rate                       : 23.976 fps
Color space                      : YUV
Chroma subsampling               : 4:2:0
Bit depth                        : 8 bits
Scan type                        : Progressive
Bits/(Pixel*Frame)               : 0.371
Stream size                      : 7.16 GiB (40%)
Title                            : x264
Writing library                  : x264 core 88 r1471 1144615
Encoding settings                : cabac=1 / ref=8 / deblock=1:-3:-3 / analyse=0x3:0x113 / me=umh / subme=10 / psy=1 / psy_rd=1.00:0.00 / mixed_ref=1 / me_range=64 / chroma_me=1 / trellis=2 / 8x8dct=1 / cqm=0 / deadzone=21,11 / fast_pskip=0 / chroma_qp_offset=-2 / threads=6 / sliced_threads=0 / nr=0 / decimate=0 / mbaff=0 / constrained_intra=0 / bframes=6 / b_pyramid=2 / b_adapt=2 / b_bias=0 / direct=3 / wpredb=1 / wpredp=2 / keyint=250 / keyint_min=25 / scenecut=40 / intra_refresh=0 / rc=2pass / mbtree=0 / bitrate=6031 / ratetol=1.0 / qcomp=0.60 / qpmin=10 / qpmax=51 / qpstep=4 / cplxblur=20.0 / qblur=0.5 / ip_ratio=1.40 / pb_ratio=1.30 / aq=1:0.80
Language                         : English
Audio #1
ID                               : 2
Format                           : AC-3
Format/Info                      : Audio Coding 3
Mode extension                   : CM (complete main)
Codec ID                         : A_AC3
Duration                         : 2h 58mn
Bit rate mode                    : Constant
Bit rate                         : 448 Kbps
Channel(s)                       : 6 channels
Channel positions                : Front: L C R, Side: L R, LFE
Sampling rate                    : 48.0 KHz
Bit depth                        : 16 bits
Compression mode                 : Lossy
Stream size                      : 572 MiB (3%)
Title                            : Дубляж
Language                         : Russian
Audio #2
ID                               : 3
Format                           : DTS
Format/Info                      : Digital Theater Systems
Codec ID                         : A_DTS
Duration                         : 2h 58mn
Bit rate mode                    : Constant
Bit rate                         : 1 510 Kbps
Channel(s)                       : 6 channels
Channel positions                : Front: L C R, Side: L R, LFE
Sampling rate                    : 48.0 KHz
Bit depth                        : 24 bits
Compression mode                 : Lossy
Stream size                      : 1.88 GiB (10%)
Title                            : Многоголосый
Language                         : Russian
Audio #3
ID                               : 4
Format                           : DTS
Format/Info                      : Digital Theater Systems
Codec ID                         : A_DTS
Duration                         : 2h 58mn
Bit rate mode                    : Constant
Bit rate                         : 1 510 Kbps
Channel(s)                       : 6 channels
Channel positions                : Front: L C R, Side: L R, LFE
Sampling rate                    : 48.0 KHz
Bit depth                        : 24 bits
Compression mode                 : Lossy
Stream size                      : 1.88 GiB (10%)
Title                            : Гланц
Language                         : Russian
Audio #4
ID                               : 5
Format                           : DTS
Format/Info                      : Digital Theater Systems
Codec ID                         : A_DTS
Duration                         : 2h 58mn
Bit rate mode                    : Constant
Bit rate                         : 1 510 Kbps
Channel(s)                       : 6 channels
Channel positions                : Front: L C R, Side: L R, LFE
Sampling rate                    : 48.0 KHz
Bit depth                        : 24 bits
Compression mode                 : Lossy
Stream size                      : 1.88 GiB (10%)
Title                            : Живов
Language                         : Russian
Audio #5
ID                               : 6
Format                           : DTS
Format/Info                      : Digital Theater Systems
Codec ID                         : A_DTS
Duration                         : 2h 58mn
Bit rate mode                    : Constant
Bit rate                         : 1 510 Kbps
Channel(s)                       : 6 channels
Channel positions                : Front: L C R, Side: L R, LFE
Sampling rate                    : 48.0 KHz
Bit depth                        : 24 bits
Compression mode                 : Lossy
Stream size                      : 1.88 GiB (10%)
Title                            : Гоблин
Language                         : Russian
Audio #6
ID                               : 7
Format                           : AC-3
Format/Info                      : Audio Coding 3
Mode extension                   : CM (complete main)
Codec ID                         : A_AC3
Duration                         : 2h 58mn
Bit rate mode                    : Constant
Bit rate                         : 192 Kbps
Channel(s)                       : 2 channels
Channel positions                : Front: L R
Sampling rate                    : 48.0 KHz
Bit depth                        : 16 bits
Compression mode                 : Lossy
Stream size                      : 245 MiB (1%)
Title                            : Божья искра #1
Language                         : Russian
Audio #7
ID                               : 8
Format                           : AC-3
Format/Info                      : Audio Coding 3
Mode extension                   : CM (complete main)
Codec ID                         : A_AC3
Duration                         : 2h 58mn
Bit rate mode                    : Constant
Bit rate                         : 192 Kbps
Channel(s)                       : 2 channels
Channel positions                : Front: L R
Sampling rate                    : 48.0 KHz
Bit depth                        : 16 bits
Compression mode                 : Lossy
Stream size                      : 245 MiB (1%)
Title                            : Божья искра #2
Language                         : Russian
Audio #8
ID                               : 9
Format                           : DTS
Format/Info                      : Digital Theater Systems
Format profile                   : ES
Codec ID                         : A_DTS
Duration                         : 2h 58mn
Bit rate mode                    : Constant
Bit rate                         : 1 510 Kbps
Channel(s)                       : 6 channels
Channel positions                : Front: L C R, Side: L R, LFE
Sampling rate                    : 48.0 KHz
Bit depth                        : 24 bits
Compression mode                 : Lossy
Stream size                      : 1.88 GiB (10%)
Title                            : DTS 5.1
Language                         : English
Text #1
ID                               : 10
Format                           : UTF-8
Codec ID                         : S_TEXT/UTF8
Codec ID/Info                    : UTF-8 Plain Text
Title                            : R5
Language                         : Russian
Text #2
ID                               : 11
Format                           : UTF-8
Codec ID                         : S_TEXT/UTF8
Codec ID/Info                    : UTF-8 Plain Text
Language                         : Russian
Text #3
ID                               : 12
Format                           : UTF-8
Codec ID                         : S_TEXT/UTF8
Codec ID/Info                    : UTF-8 Plain Text
Language                         : English
-

Скриншоты




-

Властелин колец: Две крепости

Год выпуска: 2002
Страна: США, Новая Зеландия
Жанр: Боевик, фэнтези, приключения
Продолжительность: 02:59:24
Перевод:
Профессиональный (полное дублирование)
Профессиональный (многоголосый, закадроовый)
Авторский (одноголосый, закадровый) |Гланц|
Авторский (одноголосый, закадровый) |Божья искра #1|
Авторский (одноголосый, закадровый) |Божья искра #2|-Режиссер: Питер Джексон / Peter Jackson
Сценарий: Джон Рональд Руэл Толкиен, Фрэнсис Уолш, Филиппа Бойенс
Продюсер: Питер Джексон, Майкл Линн, Марк Ордески
Оператор: Эндрю Лесни
Композитор: Элизабет Фрайзер, Говард Шор, Рихард Вагнер
Бюджет: $94 000 000 + $45 000 000 (маркетинг)
Сборы в мире: $926 287 400
Рейтинг MPAA: PG-13 - Детям до 13 лет просмотр не желателен-КиноПоиск.Ru | Blu-ray.com | IMDb.com-В ролях: Элайджа Вуд / Elijah Wood, Шон Эстин / Sean Astin, Вигго Мортенсен / Viggo Mortensen, Иэн МакКеллен / Ian McKellen, Доминик Монахэн / Dominic Monaghan, Билли Бойд / Billy Boyd, Орландо Блум / Orlando Bloom, Джон Рис-Дэвис / John Rhys-Davies, Кристофер Ли / Christopher Lee, Энди Серкис / Andy Serkis, Бернард Хилл / Bernard Hill, Миранда Отто / Miranda Otto
Описание:
Братство распалось, но Кольцо Всевластья должно быть уничтожено. Фродо и Сэм вынуждены доверить свои жизни Голлуму, который взялся провести их к вратам Мордора. Громадная Армия Сарумана приближается: члены братства и их союзники готовы принять бой. Битва за Средиземье продолжается.-

Сюжет фильма:

Братство распалось, но Кольцо Всевластья должно быть уничтожено. Фродо и Сэм вынуждены доверить свои жизни Голлуму, который взялся провести их к вратам Мордора. Громадная Армия Сарумана приближается: члены братства и их союзники готовы принять бой. Битва за Средиземье продолжается.
-Качество: BDRip | Формат: MKV | Рип: HiDt
Видео: 1280x534 (OAR), x264 (L4.1), 6 386 Kbps, 23.976 fps
Аудио:
1. Русский: 48 kHz, AC3 Dolby Digital, 3/2 (L,C,R,l,r) + LFE ch, ~448.00 kbps avg |Дубляж|
2. Русский: 48 kHz, DTS Audio, 3/2 (L,C,R,l,r) + LFE ch, ~1536.00 kbps avg |Многоголосый|
3. Русский: 48 kHz, DTS Audio, 3/2 (L,C,R,l,r) + LFE ch, ~1536.00 kbps avg |Гланц|
4. Русский: 48 kHz, AC3 Dolby Digital, 2/0 (L,C), ~192.00 kbps avg avg |Божья искра #1|
5. Русский: 48 kHz, AC3 Dolby Digital, 2/0 (L,C), ~128.00 kbps avg |Божья искра #2|
6. Английский: 48 kHz, DTS Audio, 3/2 (L,C,R,l,r) + LFE ch, ~1536.00 kbps avg
Субтитры: Английский, Русский.-

Медиа инфо:

Format                           : Matroska
File size                        : 14.6 GiB
Duration                         : 2h 59mn
Overall bit rate                 : 11.7 Mbps
Encoded date                     : UTC 2010-05-13 06:09:31
Writing application              : mkvmerge v3.3.0 ('Language') built on Mar 24 2010 14:59:24
Writing library                  : libebml v0.8.0 + libmatroska v0.9.0
Cover                            : Yes / Yes / Yes
Video
ID                               : 1
Format                           : AVC
Format/Info                      : Advanced Video Codec
Format profile                   : [email protected]
Format settings, CABAC           : Yes
Format settings, ReFrames        : 8 frames
Codec ID                         : V_MPEG4/ISO/AVC
Duration                         : 2h 59mn
Bit rate                         : 6 386 Kbps
Width                            : 1 280 pixels
Height                           : 534 pixels
Display aspect ratio             : 2.35:1
Frame rate                       : 23.976 fps
Color space                      : YUV
Chroma subsampling               : 4:2:0
Bit depth                        : 8 bits
Scan type                        : Progressive
Bits/(Pixel*Frame)               : 0.390
Stream size                      : 7.69 GiB (53%)
Title                            : x264
Writing library                  : x264 core 88 r1471 1144615
Encoding settings                : cabac=1 / ref=8 / deblock=1:-3:-3 / analyse=0x3:0x113 / me=umh / subme=10 / psy=1 / psy_rd=1.00:0.00 / mixed_ref=1 / me_range=64 / chroma_me=1 / trellis=2 / 8x8dct=1 / cqm=0 / deadzone=21,11 / fast_pskip=0 / chroma_qp_offset=-2 / threads=6 / sliced_threads=0 / nr=0 / decimate=0 / mbaff=0 / constrained_intra=0 / bframes=6 / b_pyramid=2 / b_adapt=2 / b_bias=0 / direct=3 / wpredb=1 / wpredp=2 / keyint=250 / keyint_min=25 / scenecut=40 / intra_refresh=0 / rc=2pass / mbtree=0 / bitrate=6386 / ratetol=1.0 / qcomp=0.60 / qpmin=10 / qpmax=51 / qpstep=4 / cplxblur=20.0 / qblur=0.5 / ip_ratio=1.40 / pb_ratio=1.30 / aq=1:0.80
Language                         : English
Audio #1
ID                               : 2
Format                           : AC-3
Format/Info                      : Audio Coding 3
Mode extension                   : CM (complete main)
Codec ID                         : A_AC3
Duration                         : 2h 59mn
Bit rate mode                    : Constant
Bit rate                         : 448 Kbps
Channel(s)                       : 6 channels
Channel positions                : Front: L C R, Side: L R, LFE
Sampling rate                    : 48.0 KHz
Bit depth                        : 16 bits
Compression mode                 : Lossy
Stream size                      : 575 MiB (4%)
Title                            : Дубляж
Language                         : Russian
Audio #2
ID                               : 3
Format                           : DTS
Format/Info                      : Digital Theater Systems
Codec ID                         : A_DTS
Duration                         : 2h 59mn
Bit rate mode                    : Constant
Bit rate                         : 1 510 Kbps
Channel(s)                       : 6 channels
Channel positions                : Front: L C R, Side: L R, LFE
Sampling rate                    : 48.0 KHz
Bit depth                        : 24 bits
Compression mode                 : Lossy
Stream size                      : 1.89 GiB (13%)
Title                            : Многоголосый
Language                         : Russian
Audio #3
ID                               : 4
Format                           : DTS
Format/Info                      : Digital Theater Systems
Codec ID                         : A_DTS
Duration                         : 2h 59mn
Bit rate mode                    : Constant
Bit rate                         : 1 510 Kbps
Channel(s)                       : 6 channels
Channel positions                : Front: L C R, Side: L R, LFE
Sampling rate                    : 48.0 KHz
Bit depth                        : 24 bits
Compression mode                 : Lossy
Stream size                      : 1.89 GiB (13%)
Title                            : Гланц
Language                         : Russian
Audio #4
ID                               : 5
Format                           : AC-3
Format/Info                      : Audio Coding 3
Mode extension                   : CM (complete main)
Codec ID                         : A_AC3
Duration                         : 2h 59mn
Bit rate mode                    : Constant
Bit rate                         : 192 Kbps
Channel(s)                       : 2 channels
Channel positions                : Front: L R
Sampling rate                    : 48.0 KHz
Bit depth                        : 16 bits
Compression mode                 : Lossy
Stream size                      : 246 MiB (2%)
Title                            : Божья искра #1
Language                         : Russian
Audio #5
ID                               : 6
Format                           : AC-3
Format/Info                      : Audio Coding 3
Mode extension                   : CM (complete main)
Codec ID                         : A_AC3
Duration                         : 2h 59mn
Bit rate mode                    : Constant
Bit rate                         : 128 Kbps
Channel(s)                       : 2 channels
Channel positions                : Front: L R
Sampling rate                    : 44.1 KHz
Bit depth                        : 16 bits
Compression mode                 : Lossy
Stream size                      : 164 MiB (1%)
Title                            : Божья искра #2
Language                         : Russian
Audio #6
ID                               : 7
Format                           : DTS
Format/Info                      : Digital Theater Systems
Format profile                   : ES
Codec ID                         : A_DTS
Duration                         : 2h 59mn
Bit rate mode                    : Constant
Bit rate                         : 1 510 Kbps
Channel(s)                       : 6 channels
Channel positions                : Front: L C R, Side: L R, LFE
Sampling rate                    : 48.0 KHz
Bit depth                        : 24 bits
Compression mode                 : Lossy
Stream size                      : 1.89 GiB (13%)
Title                            : DTS 5.1
Language                         : English
Text #1
ID                               : 8
Format                           : UTF-8
Codec ID                         : S_TEXT/UTF8
Codec ID/Info                    : UTF-8 Plain Text
Title                            : R5
Language                         : Russian
Text #2
ID                               : 9
Format                           : UTF-8
Codec ID                         : S_TEXT/UTF8
Codec ID/Info                    : UTF-8 Plain Text
Language                         : English
-

Скриншоты



-

Властелин колец: Возвращение Короля

Год выпуска: 2003
Страна: США, Новая Зеландия, Германия
Жанр: Боевик, фэнтези, приключения
Продолжительность: 03:21:01
Перевод:
Профессиональный (полное дублирование)
Профессиональный (многоголосый, закадровый)
Авторский (одноголосый, закадровый) |Гоблин|
Авторский (одноголосый, закадровый) |Божья искра|-Режиссер: Питер Джексон / Peter Jackson
Сценарий: Джон Рональд Руэл Толкиен, Фрэнсис Уолш, Филиппа Бойенс
Продюсер: Питер Джексон, Майкл Линн, Марк Ордески
Оператор: Эндрю Лесни
Композитор: Говард Шор
Бюджет: $93 000 000 + $45 000 000 (маркетинг)
Сборы в мире: $1 118 888 979
Рейтинг MPAA: PG-13 - Детям до 13 лет просмотр не желателен-КиноПоиск.Ru | Blu-ray.com | IMDb.com-В ролях: Элайджа Вуд / Elijah Wood, Шон Эстин / Sean Astin, Вигго Мортенсен / Viggo Mortensen, Иэн МакКеллен / Ian McKellen, Доминик Монахэн / Dominic Monaghan, Билли Бойд / Billy Boyd, Орландо Блум / Orlando Bloom, Джон Рис-Дэвис / John Rhys-Davies, Энди Серкис / Andy Serkis, Бернард Хилл / Bernard Hill, Миранда Отто / Miranda Otto, Карл Урбан / Karl Urban
Описание:
Последняя часть трилогии о Кольце Всевластия и о героях, взявших на себя бремя спасения Средиземья. Повелитель сил Тьмы Саурон направляет свои бесчисленные рати под стены Минас-Тирита, крепости Последней Надежды. Он предвкушает близкую победу, но именно это и мешает ему заметить две крохотные фигурки — хоббитов, приближающихся к Роковой Горе, где им предстоит уничтожить Кольцо Всевластия. Улыбнется ли им счастье?..-

Сюжет фильма:

Последняя часть трилогии о Кольце Всевластия и о героях, взявших на себя бремя спасения Средиземья. Повелитель сил Тьмы Саурон направляет свои бесчисленные рати под стены Минас-Тирита, крепости Последней Надежды. Он предвкушает близкую победу, но именно это и мешает ему заметить две крохотные фигурки — хоббитов, приближающихся к Роковой Горе, где им предстоит уничтожить Кольцо Всевластия. Улыбнется ли им счастье?..
-Качество: BDRip | Формат: MKV | Рип: HiDt
Видео: 1280x532 (OAR), x264 (L4.1), 7 428 Kbps, 23.976 fps
Аудио:
1. Русский: 48 kHz, AC3 Dolby Digital, 3/2 (L,C,R,l,r) + LFE ch, ~448.00 kbps avg |Дубляж|
2. Русский: 48 kHz, DTS Audio, 3/2 (L,C,R,l,r) + LFE ch, ~1536.00 kbps avg |Многоголосый|
3. Русский: 48 kHz, AC3 Dolby Digital, 3/2 (L,C,R,l,r) + LFE ch, ~128.00 kbps avg |Гоблин|
4. Русский: 48 kHz, AC3 Dolby Digital, 3/2 (L,C,R,l,r) + LFE ch, ~384.00 kbps avg |Божья искра|
5. Английский: 48 kHz, DTS Audio, 3/2 (L,C,R,l,r) + LFE ch, ~1536.00 kbps avg
Субтитры: Английский, Русский-

Медиа инфо:

Format                           : Matroska
File size                        : 16.3 GiB
Duration                         : 3h 21mn
Overall bit rate                 : 11.6 Mbps
Encoded date                     : UTC 2010-05-13 06:35:30
Writing application              : mkvmerge v3.3.0 ('Language') built on Mar 24 2010 14:59:24
Writing library                  : libebml v0.8.0 + libmatroska v0.9.0
Cover                            : Yes / Yes / Yes
Video
ID                               : 1
Format                           : AVC
Format/Info                      : Advanced Video Codec
Format profile                   : [email protected]
Format settings, CABAC           : Yes
Format settings, ReFrames        : 8 frames
Codec ID                         : V_MPEG4/ISO/AVC
Duration                         : 3h 21mn
Bit rate                         : 7 674 Kbps
Width                            : 1 280 pixels
Height                           : 532 pixels
Display aspect ratio             : 2.40:1
Frame rate                       : 23.976 fps
Color space                      : YUV
Chroma subsampling               : 4:2:0
Bit depth                        : 8 bits
Scan type                        : Progressive
Bits/(Pixel*Frame)               : 0.470
Stream size                      : 10.4 GiB (64%)
Title                            : x264
Writing library                  : x264 core 88 r1471 1144615
Encoding settings                : cabac=1 / ref=8 / deblock=1:-3:-3 / analyse=0x3:0x113 / me=umh / subme=10 / psy=1 / psy_rd=1.00:0.00 / mixed_ref=1 / me_range=64 / chroma_me=1 / trellis=2 / 8x8dct=1 / cqm=0 / deadzone=21,11 / fast_pskip=0 / chroma_qp_offset=-2 / threads=6 / sliced_threads=0 / nr=0 / decimate=0 / mbaff=0 / constrained_intra=0 / bframes=6 / b_pyramid=2 / b_adapt=2 / b_bias=0 / direct=3 / wpredb=1 / wpredp=2 / keyint=250 / keyint_min=25 / scenecut=40 / intra_refresh=0 / rc=2pass / mbtree=0 / bitrate=7674 / ratetol=1.0 / qcomp=0.60 / qpmin=10 / qpmax=51 / qpstep=4 / cplxblur=20.0 / qblur=0.5 / ip_ratio=1.40 / pb_ratio=1.30 / aq=1:0.80
Language                         : English
Audio #1
ID                               : 2
Format                           : AC-3
Format/Info                      : Audio Coding 3
Mode extension                   : CM (complete main)
Codec ID                         : A_AC3
Duration                         : 3h 21mn
Bit rate mode                    : Constant
Bit rate                         : 448 Kbps
Channel(s)                       : 6 channels
Channel positions                : Front: L C R, Side: L R, LFE
Sampling rate                    : 48.0 KHz
Bit depth                        : 16 bits
Compression mode                 : Lossy
Stream size                      : 644 MiB (4%)
Title                            : Дубляж
Language                         : Russian
Audio #2
ID                               : 3
Format                           : DTS
Format/Info                      : Digital Theater Systems
Codec ID                         : A_DTS
Duration                         : 3h 21mn
Bit rate mode                    : Constant
Bit rate                         : 1 510 Kbps
Channel(s)                       : 6 channels
Channel positions                : Front: L C R, Side: L R, LFE
Sampling rate                    : 48.0 KHz
Bit depth                        : 24 bits
Compression mode                 : Lossy
Stream size                      : 2.12 GiB (13%)
Title                            : Многоголосый
Language                         : Russian
Audio #3
ID                               : 4
Format                           : AC-3
Format/Info                      : Audio Coding 3
Mode extension                   : CM (complete main)
Codec ID                         : A_AC3
Duration                         : 3h 21mn
Bit rate mode                    : Constant
Bit rate                         : 128 Kbps
Channel(s)                       : 2 channels
Channel positions                : Front: L R
Sampling rate                    : 48.0 KHz
Bit depth                        : 16 bits
Compression mode                 : Lossy
Stream size                      : 184 MiB (1%)
Title                            : Гоблин
Language                         : Russian
Audio #4
ID                               : 5
Format                           : AC-3
Format/Info                      : Audio Coding 3
Mode extension                   : CM (complete main)
Codec ID                         : A_AC3
Duration                         : 3h 21mn
Bit rate mode                    : Constant
Bit rate                         : 384 Kbps
Channel(s)                       : 6 channels
Channel positions                : Front: L C R, Side: L R, LFE
Sampling rate                    : 48.0 KHz
Bit depth                        : 16 bits
Compression mode                 : Lossy
Stream size                      : 552 MiB (3%)
Title                            : Божья искра
Language                         : Russian
Audio #5
ID                               : 6
Format                           : DTS
Format/Info                      : Digital Theater Systems
Format profile                   : ES
Codec ID                         : A_DTS
Duration                         : 3h 21mn
Bit rate mode                    : Constant
Bit rate                         : 1 510 Kbps
Channel(s)                       : 6 channels
Channel positions                : Front: L C R, Side: L R, LFE
Sampling rate                    : 48.0 KHz
Bit depth                        : 24 bits
Compression mode                 : Lossy
Stream size                      : 2.12 GiB (13%)
Title                            : DTS 5.1
Language                         : English
Text #1
ID                               : 7
Format                           : UTF-8
Codec ID                         : S_TEXT/UTF8
Codec ID/Info                    : UTF-8 Plain Text
Language                         : Russian
Text #2
ID                               : 8
Format                           : UTF-8
Codec ID                         : S_TEXT/UTF8
Codec ID/Info                    : UTF-8 Plain Text
Language                         : English
-

Скриншоты






Последний раз редактировалось: InD1gO (2013-03-26 16:27), всего редактировалось 3 раз(а)

Создавать темы 28-Янв-2011 12:28

[Профиль]  [ЛС] 

bahosh

Стаж: 7 лет 6 месяцев

Сообщений: 91

Симпатии: 2

Только с источником разберитесь.

Создавать темы 28-Янв-2011 13:02

[Профиль]  [ЛС] 

InD1gO ®

Стаж: 6 лет 11 месяцев

Сообщений: 81

Симпатии: 3

ок!

Создавать темы 28-Янв-2011 13:03

[Профиль]  [ЛС] 

portntv

Стаж: 7 лет 6 месяцев

Сообщений: 13

когда будить раздачи!?

Создавать темы 28-Янв-2011 13:08

[Профиль]  [ЛС] 

InD1gO ®

Стаж: 6 лет 11 месяцев

Сообщений: 81

Симпатии: 3

сегодня!

Создавать темы 28-Янв-2011 14:00

[Профиль]  [ЛС] 

rbb

Стаж: 7 лет 1 месяц

Сообщений: 124

Класс, молодец
Но со скорости 30 кб/сек я буду качать 2 года, если не больше.
По этому, автор, есть ли у тебя 4 гиговый вариант этого фильма.

Создавать темы 28-Янв-2011 15:50

[Профиль]  [ЛС] 

lord-david

Стаж: 7 лет 5 месяцев

Сообщений: 175

Симпатии: 2

rbb у меня есть трилогия Кольца один ДВДдиск!
добавлено спустя 1 минута 44 секунды:
По размеру можно сказать что это 1080!
Но разрешение такое малое!
МОжет это и 3д?!


Последний раз редактировалось: lord-david (2011-01-28 15:56), всего редактировалось 1 раз

Создавать темы 28-Янв-2011 15:56

[Профиль]  [ЛС] 

rbhome

Стаж: 8 лет 11 месяцев

Сообщений: 134

Симпатии: 5

lord-david
Размер самое то для 720p по три часа фильма плюс столько дорожек по1500кбит/s
Как раз на днях думал раздать что у меня было - 720p 36 гиг, но посмотрел рип мне не понравился. Буду качать этот для себя.

Создавать темы 28-Янв-2011 19:02

[Профиль]  [ЛС] 

InD1gO ®

Стаж: 6 лет 11 месяцев

Сообщений: 81

Симпатии: 3

тут есть кто с Бухары ???
Добавлено спустя 1 минута 53 секунды:
кто болше качал и сколко уже % ???


Последний раз редактировалось: InD1gO (2011-02-02 17:27), всего редактировалось 1 раз

Создавать темы 02-Фев-2011 17:27

[Профиль]  [ЛС] 

grec_92

Стаж: 7 лет

Сообщений: 12

Симпатии: 1

дядьки, подогрейте скорости плииз! ab

Создавать темы 17-Фев-2011 23:35

[Профиль]  [ЛС] 

serjjoga

Стаж: 7 лет 4 месяца

Сообщений: 428

Симпатии: 33

у меня есть эта трилогия, но только режиссерские версии. Если надо выложу!

Создавать темы 17-Фев-2011 23:37

[Профиль]  [ЛС] 

tima89_21

Стаж: 7 лет 8 месяцев

Сообщений: 93

serjjoga а размер какое ?

Создавать темы 18-Фев-2011 13:24

[Профиль]  [ЛС] 

grec_92

Стаж: 7 лет

Сообщений: 12

Симпатии: 1

у меня есть эта трилогия, но только режиссерские версии. Если надо выложу!
Выложи если не трудно

Создавать темы 18-Фев-2011 15:05

[Профиль]  [ЛС] 

serjjoga

Стаж: 7 лет 4 месяца

Сообщений: 428

Симпатии: 33

serjjoga а размер какое ?
Размер (общий): 9,64 Гб, кодек: x264, формат: MKV
Режиссерские версии идут больше чем прокатные в гдето от получаса до часа с лишнем. Перевод в местах, которых не было в прокатной версии: Многоголосый, также имеются субтитры.


Последний раз редактировалось: serjjoga (2011-02-18 17:47), всего редактировалось 2 раз(а)

Создавать темы 18-Фев-2011 17:47

[Профиль]  [ЛС] 

InD1gO ®

Стаж: 6 лет 11 месяцев

Сообщений: 81

Симпатии: 3

serjjoga
Выложи режиссерскую версию будем качать!

Создавать темы 18-Фев-2011 18:57

[Профиль]  [ЛС] 
Показать сообщения:    
Ответить на тему

Текущее время: 18-Дек 04:37

Часовой пояс: UTC + 5



Вы не можете начинать темы
Вы не можете отвечать на сообщения
Вы не можете редактировать свои сообщения
Вы не можете удалять свои сообщения
Вы не можете голосовать в опросах
Вы не можете прикреплять файлы к сообщениям
Вы не можете скачивать файлы