Ну Погоди!!! Стекольный Завод. Серия не вышедшая на экраны СССР[1969 г., мульт-юмор, SATRip]

Страницы :  1, 2  След.

Ответить на тему
 

mansurjon ®

Стаж: 7 лет 7 месяцев

Сообщений: 103

Симпатии: 3

Ну Погоди!!! Стекольный Завод Год выпуска: 1969
Страна: СССР
Жанр: мульт-юмор
Продолжительность: 3 мин.
Перевод: Профессиональный (полное дублирование)
Режиссер: Киножурнал "Фитиль"
В ролях: Волк и Заяц

Всесоюзный сатирический киножурнал ФИТИЛЬ представляет: серию мультфильма "Ну погоди стекольный завод". Серия не вышедшая на экраны СССР. Редкий мультфильм.
Качество: SATRip
Формат: MPEG
Видео кодек: MPEG2
Аудио кодек: MPEG Audio
Видео: MPEG2 Video 720x576 (4:3) 25.00fps 10000kbps
Аудио: MPEG Audio 48000Hz stereo 192kbps

MediaInfo

General
Complete name : Pogodi-steklozavod.mpg
Format : MPEG-PS
File size : 100 MiB
Duration : 3mn 12s
Overall bit rate : 4 387 Kbps
Video
ID : 224 (0xE0)
Format : MPEG Video
Format version : Version 2
Format profile : [email protected]
Format settings, BVOP : Yes
Format settings, Matrix : Default
Format settings, GOP : M=3, N=12
Duration : 3mn 12s
Bit rate mode : Variable
Bit rate : 4 108 Kbps
Nominal bit rate : 10 000 Kbps
Width : 720 pixels
Height : 576 pixels
Display aspect ratio : 4:3
Frame rate : 25.000 fps
Standard : PAL
Color space : YUV
Chroma subsampling : 4:2:0
Bit depth : 8 bits
Scan type : Interlaced
Scan order : Top Field First
Bits/(Pixel*Frame) : 0.396
Stream size : 94.0 MiB (94%)
Audio
ID : 192 (0xC0)
Format : MPEG Audio
Format version : Version 1
Format profile : Layer 2
Duration : 3mn 11s
Bit rate mode : Constant
Bit rate : 192 Kbps
Channel(s) : 2 channels
Sampling rate : 48.0 KHz
Video delay : -120ms
Stream size : 4.39 MiB (4%)

Скриншоты



Создавать темы 06-Фев-2011 12:21

[Профиль]  [ЛС] 

bek4ever

Стаж: 6 лет 10 месяцев

Сообщений: 57

Симпатии: 2

Боольшой спасибос! ar

Создавать темы 09-Фев-2011 16:17

[Профиль]  [ЛС] 

Corby

Стаж: 7 лет

Сообщений: 83

Интересно,а почему не вышла?

Создавать темы 11-Фев-2011 13:53

[Профиль]  [ЛС] 

Bositxon

Стаж: 7 лет 1 месяц

Сообщений: 4

спасибо ay

Создавать темы 12-Фев-2011 16:15

[Профиль]  [ЛС] 

Slevin

Стаж: 6 лет 11 месяцев

Сообщений: 54

Симпатии: 1

Аха не вышла в правом углу значок Первого канала что делает ТОГДА?))))

Создавать темы 14-Фев-2011 11:37

[Профиль]  [ЛС] 

diman

Стаж: 7 лет 9 месяцев

Сообщений: 53

Симпатии: 1

Так первый канал это не СССР ab

Создавать темы 14-Фев-2011 11:51

[Профиль]  [ЛС] 

Kenex

Стаж: 6 лет 10 месяцев

Сообщений: 71

Симпатии: 2

1 канал раньше был ОРТ там цифра 1 и дуга кажется была

Создавать темы 03-Мар-2011 01:31

[Профиль]  [ЛС] 

genw

Стаж: 6 лет 10 месяцев

Сообщений: 59

спасибо ay

Создавать темы 03-Мар-2011 12:47

[Профиль]  [ЛС] 

5606001

Стаж: 7 лет 11 месяцев

Сообщений: 17

спасиба ! ah

Создавать темы 03-Мар-2011 16:31

[Профиль]  [ЛС] 

Stefan

Стаж: 6 лет 9 месяцев

Сообщений: 27

Симпатии: 3

Спасибо ay

Создавать темы 07-Мар-2011 19:57

[Профиль]  [ЛС] 

babaher

Стаж: 6 лет 10 месяцев

Сообщений: 12

Симпатии: 1

Corby не вышла потому, что там критика в адрес завода. А при СССР критика в адрес любого советского производства была не приемлема.
Добавлено спустя 17 секунд:
zd


Последний раз редактировалось: babaher (2011-03-08 13:59), всего редактировалось 1 раз

Создавать темы 08-Мар-2011 13:59

[Профиль]  [ЛС] 

articow

Стаж: 7 лет 6 месяцев

Сообщений: 116

Симпатии: 16

Это верно!!!

Создавать темы 09-Мар-2011 22:55

[Профиль]  [ЛС] 

Ильхом

Стаж: 6 лет 8 месяцев

Сообщений: 1

СПАААААААА.........сибо

Создавать темы 08-Апр-2011 14:34

[Профиль]  [ЛС] 

azizbek98

Стаж: 6 лет 7 месяцев

Сообщений: 2

ap спасибо!!! az

Создавать темы 24-Апр-2011 15:26

[Профиль]  [ЛС] 

Топик был перенесен из форума Мультфильмы в форум CamRip\Telesync\SATRip\TVRip

Pendalf

Создавать темы 08-Янв-2012 02:02

 
Показать сообщения:    
Ответить на тему

Текущее время: 15-Дек 15:07

Часовой пояс: UTC + 5



Вы не можете начинать темы
Вы не можете отвечать на сообщения
Вы не можете редактировать свои сообщения
Вы не можете удалять свои сообщения
Вы не можете голосовать в опросах
Вы не можете прикреплять файлы к сообщениям
Вы не можете скачивать файлы