Одиночка / Kamui gaiden (Ёити Саи) [2009 г., Боевик, Драма] HDRip

Ответить на тему
 

Mr_ALo ®

Стаж: 8 лет

Сообщений: 367

Симпатии: 20

Одиночка / Kamui gaiden Год выпуска: 2009
Страна: Япония
Жанр: Боевик, Драма
Продолжительность: 02:00:00
Перевод: Профессиональный (многоголосый, закадровый) [Лицензия]
Режиссер: Ёити Саи
В ролях: Матсуяма Кеничи, Коюки, Каору Кобаяши, Коити Сато, Хидеаки Ито, Сей Ашина, Экин Чэн, Юта Канаи, Наоюки Морита, Шигеру Накано
Описание: Он — самый виртуозный ниндзя-убийца в мире. Еще ребенком Камуи попал к великому учителю, который сделал из него профессионального убийцу могущественного клана нинзя. Но став лучшим в своем деле, Камуи понял, что лишен всех радостей жизни и бежал. Многочисленные убийцы были отправлены по его следу. Ведь никто еще не покидал клана живым! Секреты тайного искусства охраняются веками, и предателя ждет только одно наказание — смерть…
IMDB: 5.70 (374)
 Качество: HDRip
Формат: AVI
Видео: XviD 608x320 23.976 fps, 695 Kbps
Аудио: MP3 44.1 KHz 2 channels, 112 Kbps

MediaInfo

General
Complete name : C:\Downloads\Одиночка 2009 HDRip.avi
Format : AVI
Format/Info : Audio Video Interleave
File size : 701 MiB
Duration : 2h 0mn
Overall bit rate : 816 Kbps
Writing application : VirtualDubMod 1.5.4.1 (build 2178/release)
Writing library : VirtualDubMod build 2178/release
Video
ID : 0
Format : MPEG-4 Visual
Format profile : Advanced [email protected]
Format settings, BVOP : 2
Format settings, QPel : No
Format settings, GMC : No warppoints
Format settings, Matrix : Default (MPEG)
Muxing mode : Packed bitstream
Codec ID : XVID
Codec ID/Hint : XviD
Duration : 2h 0mn
Bit rate : 695 Kbps
Width : 608 pixels
Height : 320 pixels
Display aspect ratio : 1.900
Frame rate : 23.976 fps
Color space : YUV
Chroma subsampling : 4:2:0
Bit depth : 8 bits
Scan type : Progressive
Compression mode : Lossy
Bits/(Pixel*Frame) : 0.149
Stream size : 597 MiB (85%)
Writing library : XviD 58
Audio
ID : 1
Format : MPEG Audio
Format version : Version 1
Format profile : Layer 3
Codec ID : 55
Codec ID/Hint : MP3
Duration : 2h 0mn
Bit rate mode : Constant
Bit rate : 112 Kbps
Channel(s) : 2 channels
Sampling rate : 44.1 KHz
Compression mode : Lossy
Stream size : 96.1 MiB (14%)
Alignment : Split accross interleaves
Interleave, duration : 42 ms (1.00 video frame)
Interleave, preload duration : 500 ms
Writing library : LAME3.98r
Encoding settings : -m s -V 4 -q 2 -lowpass 15.6 -b 112

Скриншоты



Создавать темы 23-Фев-2011 10:11

[Профиль]  [ЛС] 

DoktorUZ

Стаж: 6 лет 10 месяцев

Сообщений: 55

Mr_ALo Спс будим качат думаю кино супер ab

Создавать темы 23-Фев-2011 15:54

[Профиль]  [ЛС] 

xeroz

Стаж: 5 лет 11 месяцев

Сообщений: 1

как можна скачат

Создавать темы 08-Янв-2012 00:30

[Профиль]  [ЛС] 

Anaxoret

Стаж: 7 лет 3 месяца

Сообщений: 3

Сидер дай скорости

Создавать темы 11-Янв-2012 05:52

[Профиль]  [ЛС] 

Топик был перенесен из форума Зарубежное кино в форум Азиатские фильмы


Mr_ALo

Создавать темы 11-Янв-2012 16:19

 

arsenal.uz

Стаж: 5 лет 10 месяцев

Сообщений: 4

норм

Создавать темы 10-Май-2012 09:44

[Профиль]  [ЛС] 

l-ART-l

Стаж: 5 лет 10 месяцев

Сообщений: 13

помогите скачать. дайте скорости плиз.

Создавать темы 24-Май-2014 22:27

[Профиль]  [ЛС] 
Показать сообщения:    
Ответить на тему

Текущее время: 16-Дек 18:12

Часовой пояс: UTC + 5



Вы не можете начинать темы
Вы не можете отвечать на сообщения
Вы не можете редактировать свои сообщения
Вы не можете удалять свои сообщения
Вы не можете голосовать в опросах
Вы не можете прикреплять файлы к сообщениям
Вы не можете скачивать файлы