Войны Хало/Halo Wars(Тим Миллер) [2009 г., Фантастика, Боевик, Мультфильм, DVDRip]

Страницы :  1, 2  След.

Ответить на тему
 

Akki ®

Стаж: 6 лет 9 месяцев

Сообщений: 158

Войны Хало/Halo Wars
Год выхода: 2009
Страна: США
Компания: Ensemble Studios
Продолжительность: 00:30:18
Жанр: Фантастика, Боевик, Мультфильм
Режиссер: Тим Миллер
Перевод: Дублирование
Актеры: Нолан Норт, Коуртиней Тайлор, Ким Мэй Гест, Дэвид Соболов
О фильме: События, описываемые в этом короткометражном мультфильме, происходят за 20 лет до «Halo: Combat Evolved».
Космическое Командование Объединенных Наций (ККОН) направляет крейсер «Дух огня», расследовать происшествие на планете Жатва…
Рейтинг IMDB: 7.5/10
Качество: DVDRip
Формат: AVI
Видео кодек: Xvid
Аудио кодек: MPEG Audio
Видео: Video: Xvid 720x308 30.00fps
Аудио: Audio: MPEG Audio Layer 3 48000Hz stereo 160kbps

Скриншоты


Format : AVI
Format/Info : Audio Video Interleave
File size : 614 MiB
Duration : 30mn 18s
Overall bit rate : 2 831 Kbps
Writing application : VirtualDubMod 1.5.10.2 (build 2540/release)
Writing library : VirtualDubMod build 2540/release
Video
ID : 0
Format : MPEG-4 Visual
Format profile : Advanced Simple@L5
Format settings, BVOP : 2
Format settings, QPel : No
Format settings, GMC : No warppoints
Format settings, Matrix : Default (H.263)
Muxing mode : Packed bitstream
Codec ID : XVID
Codec ID/Hint : XviD
Duration : 30mn 18s
Bit rate : 2 494 Kbps
Width : 720 pixels
Height : 308 pixels
Display aspect ratio : 2.35:1
Frame rate : 30.000 fps
Color space : YUV
Chroma subsampling : 4:2:0
Bit depth : 8 bits
Scan type : Progressive
Compression mode : Lossy
Bits/(Pixel*Frame) : 0.375
Stream size : 540 MiB (88%)
Writing library : XviD 1.2.1 (UTC 2008-12-04)
Audio #1
ID : 1
Format : MPEG Audio
Format version : Version 1
Format profile : Layer 3
Codec ID : 55
Codec ID/Hint : MP3
Duration : 30mn 17s
Bit rate mode : Constant
Bit rate : 160 Kbps
Channel(s) : 2 channels
Sampling rate : 48.0 KHz
Compression mode : Lossy
Stream size : 34.7 MiB (6%)
Alignment : Aligned on interleaves
Interleave, duration : 33 ms (1.00 video frame)
Interleave, preload duration : 504 ms
Writing library : LAME3.93
Encoding settings : -m s -V 4 -q 0 -lowpass 16.7 -b 160
Audio #2
ID : 2
Format : MPEG Audio
Format version : Version 1
Format profile : Layer 3
Codec ID : 55
Codec ID/Hint : MP3
Duration : 30mn 17s
Bit rate mode : Constant
Bit rate : 160 Kbps
Channel(s) : 2 channels
Sampling rate : 48.0 KHz
Compression mode : Lossy
Stream size : 34.7 MiB (6%)
Alignment : Aligned on interleaves
Interleave, duration : 33 ms (1.00 video frame)
Interleave, preload duration : 504 ms
Writing library : LAME3.93
Encoding settings : -m s -V 4 -q 0 -low


Последний раз редактировалось: Akki (2011-02-25 23:30), всего редактировалось 4 раз(а)

Создавать темы 23-Фев-2011 18:11

[Профиль]  [ЛС] 

bahosh

Стаж: 7 лет 4 месяца

Сообщений: 91

Симпатии: 2

Полного источника не было: Никогда
Разберитесь с источником.Укажите перевод и добавьте битрейт видео.

Создавать темы 23-Фев-2011 18:40

[Профиль]  [ЛС] 

CooL23

Стаж: 6 лет 8 месяцев

Сообщений: 2

Akki plz day ska4at

Создавать темы 25-Фев-2011 08:20

[Профиль]  [ЛС] 

lord-david

Стаж: 7 лет 3 месяца

Сообщений: 175

Симпатии: 2

Меня тоже интерисует перевод!

Создавать темы 25-Фев-2011 18:16

[Профиль]  [ЛС] 

Akki ®

Стаж: 6 лет 9 месяцев

Сообщений: 158

перевод хороший :) и на раздаче стою

Создавать темы 25-Фев-2011 23:32

[Профиль]  [ЛС] 

Nevermind

Стаж: 7 лет 3 месяца

Сообщений: 123

Симпатии: 4

Akki и где же ты?

Создавать темы 26-Фев-2011 15:03

[Профиль]  [ЛС] 

lord-david

Стаж: 7 лет 3 месяца

Сообщений: 175

Симпатии: 2

Akki русский или англ?!


Последний раз редактировалось: lord-david (2011-02-26 15:15), всего редактировалось 1 раз

Создавать темы 26-Фев-2011 15:15

[Профиль]  [ЛС] 

junior

Стаж: 7 лет 10 месяцев

Сообщений: 138

Симпатии: 7

Полного источника не было: Никогда
Зарегистрирован:  3 дня

Создавать темы 27-Фев-2011 13:11

[Профиль]  [ЛС] 

david

Стаж: 7 лет 4 месяца

Сообщений: 467

Симпатии: 12

а игра есть у кого нибудь ? не мультиплеер с Узнета, а на прохождение ?
сидеры -- нормально раздавайте, а то у меня апплоад почти такой, как у 4-х сидеров ag ag


Последний раз редактировалось: david (2011-07-21 16:18), всего редактировалось 1 раз

Создавать темы 21-Июл-2011 10:26

[Профиль]  [ЛС] 

neonick

Стаж: 6 лет 8 месяцев

Сообщений: 11

дайте ЖАРУ 5% осталось закачать

Создавать темы 20-Янв-2012 17:27

[Профиль]  [ЛС] 

Sinema_uz

Стаж: 6 лет 9 месяцев

Сообщений: 303

Симпатии: 4

встан на раздачуууууу аккииииии

Создавать темы 21-Янв-2012 07:06

[Профиль]  [ЛС] 

Sinema_uz

Стаж: 6 лет 9 месяцев

Сообщений: 303

Симпатии: 4

вот так всегда кагда хочиш скачать сида нету его забрали в армийю

Создавать темы 21-Янв-2012 20:03

[Профиль]  [ЛС] 

Sinema_uz

Стаж: 6 лет 9 месяцев

Сообщений: 303

Симпатии: 4

встан на раздачу акки 96 процентов я скачал!!!!!!!!!!

Создавать темы 27-Янв-2012 04:58

[Профиль]  [ЛС] 

Dior666

Стаж: 6 лет 9 месяцев

Сообщений: 22

Симпатии: 1

Акки обнови торрент дай скачать

Создавать темы 27-Янв-2012 14:09

[Профиль]  [ЛС] 

Sinema_uz

Стаж: 6 лет 9 месяцев

Сообщений: 303

Симпатии: 4

будь челом встан на раздачу я сам буду раздавать потом!!!!!!!!!

Создавать темы 28-Янв-2012 12:29

[Профиль]  [ЛС] 
Показать сообщения:    
Ответить на тему

Текущее время: 20-Окт 08:31

Часовой пояс: UTC + 5



Вы не можете начинать темы
Вы не можете отвечать на сообщения
Вы не можете редактировать свои сообщения
Вы не можете удалять свои сообщения
Вы не можете голосовать в опросах
Вы не можете прикреплять файлы к сообщениям
Вы не можете скачивать файлы