the leet world/ Элитный мир (1сез. 14серий 2сез. 3 серии) [2010 г., комеди, TVRip]

Ответить на тему
 

MassiveAttack ®

Стаж: 7 лет

Сообщений: 23

Симпатии: 1

the leet world/ Элитный мир (1сез. 14серий 2сез. 3 серии)
Год выпуска: 2010
Страна: USA
Жанр: комедия
Продолжительность: от 8мин.
Перевод: Русский дублированый (любительский)
Описание: «Элитный мир» - это самый громкий и успешный проект коллектива режиссёров машинимы Smooth Few Films, уже известного вам благодаря их шикарным короткометражкам «Облом», «Один день из жизни турелей», «Половое созревание» и «Стволторг». В этот раз вашему вниманию предлагается интригующее и уморительное реалити-шоу на движке Counter-Strike: Source. Опытный спецназовец Вестхаймер и некогда успешный террорист Кортез должны воспитать настоящих мастеров своего дела из шестерых идиотов и нубов.
серии еще выходят, есть уже 4 серия 2го сезона, а на оффе аж 14 только без перевода.
http://smoothfewfilms.com/theleetworld/ офф сайт
http://stopgame.ru/machinima/genre/theleetworld сайт руссих сподвижников!

Параметры

Format : MPEG-4
Codec ID : M4V
File size : 36.3 MiB
Duration : 8mn 14s
Overall bit rate : 616 Kbps
Performer : Express
Encoded date : UTC 2011-01-11 08:41:21
Tagged date : UTC 2011-01-11 08:41:21
Video #2
ID : 2
Format : AVC
Format/Info : Advanced Video Codec
Format profile : [email protected]
Format settings, CABAC : Yes
Format settings, ReFrames : 4 frames
Codec ID : avc1
Codec ID/Info : Advanced Video Coding
Duration : 8mn 14s
Bit rate mode : Variable
Bit rate : 502 Kbps
Width : 640 pixels
Height : 360 pixels
Display aspect ratio : 16:9
Frame rate mode : Variable
Frame rate : 25.000 fps
Minimum frame rate : 12.500 fps
Maximum frame rate : 25.000 fps
Standard : NTSC
Resolution : 24 bits
Colorimetry : 4:2:0
Scan type : Progressive
Bits/(Pixel*Frame) : 0.087
Stream size : 29.6 MiB (82%)
Language : English
Encoded date : UTC 2011-01-11 08:45:48
Tagged date : UTC 2011-01-11 08:45:48
Audio #1
ID : 1
Format : AAC
Format/Info : Advanced Audio Codec
Format version : Version 4
Format profile : LC
Format settings, SBR : No
Codec ID : 40
Duration : 8mn 14s
Bit rate mode : Variable
Bit rate : 109 Kbps
Maximum bit rate : 181 Kbps
Channel(s) : 2 channels
Channel positions : L R
Sampling rate : 44.1 KHz
Resolution : 16 bits
Stream size : 6.41 MiB (18%)
Language : English
Encoded date : UTC 2011-01-11 08:45:48
Tagged date : UTC 2011-01-11 08:45:48
Качество: TVRip
Формат: MPEG
Видео кодек: Другой MPEG4
Аудио кодек: AАC
Видео: Video: MPEG4 Video (H264) 640x360 [Video]
Аудио: Audio: AAC 44100Hz stereo 1411kbps [Audio]

Скриншоты






Последний раз редактировалось: MassiveAttack (2011-02-28 18:59), всего редактировалось 3 раз(а)

Создавать темы 26-Фев-2011 08:42

[Профиль]  [ЛС] 

ziyod

Стаж: 7 лет 7 месяцев

Сообщений: 367

Симпатии: 60

Видео: Video: MPEG4 Video (H264) 640x360 [Video]
не хватает битрейт видео.
Аудио кодек: AC3
Аудио: Audio: AAC 44100Hz stereo 1411kbps [Audio]
который из них правильный??? Дай лог медиаинфо.


Последний раз редактировалось: ziyod (2011-02-28 06:35), всего редактировалось 1 раз

Создавать темы 28-Фев-2011 06:35

[Профиль]  [ЛС] 

MaKswOw

Стаж: 6 лет 9 месяцев

Сообщений: 74

Симпатии: 6

coool !спс.когда выйдет 2 сезон с переводом залей .скачаю

Создавать темы 28-Фев-2011 11:24

[Профиль]  [ЛС] 
Показать сообщения:    
Ответить на тему

Текущее время: 22-Окт 09:50

Часовой пояс: UTC + 5



Вы не можете начинать темы
Вы не можете отвечать на сообщения
Вы не можете редактировать свои сообщения
Вы не можете удалять свои сообщения
Вы не можете голосовать в опросах
Вы не можете прикреплять файлы к сообщениям
Вы не можете скачивать файлы