Eminem - No Love ft. Lil Wayne 720p ( Live HD )

Ответить на тему
 

JuliaN ®

Стаж: 7 лет

Сообщений: 45

Симпатии: 1

Eminem ft Lil Wayne -No Love ( Live 720p HD) (14.10.2010)

Создавать темы 01-Мар-2011 17:43

[Профиль]  [ЛС] 

JuliaN ®

Стаж: 7 лет

Сообщений: 45

Симпатии: 1

Если кому то нужно я залью в трекер !!

Создавать темы 01-Мар-2011 17:48

[Профиль]  [ЛС] 

eminem

Стаж: 6 лет 10 месяцев

Сообщений: 104

Параметры такие?
Eminem - No Love ft. Lil Wayne 720.mp4.avi
General
Complete name : D:\Mu Music\EMINEM\Clips\Eminem - No Love ft. Lil Wayne 720.mp4.avi
Format : MPEG-4
Format profile : Base Media / Version 2
Codec ID : mp42
File size : 51.2 MiB
Duration : 5mn 14s
Overall bit rate : 1 368 Kbps
Encoded date : UTC 2010-09-28 18:04:07
Tagged date : UTC 2010-09-28 18:04:07
gsst : 0
gstd : 314230
gssd : B4A7DA805HH1285906373797083
gshh : v5.lscache4.c.youtube.com
Video #1
ID : 1
Format : AVC
Format/Info : Advanced Video Codec
Format profile : [email protected]
Format settings, CABAC : Yes
Format settings, ReFrames : 1 frame
Codec ID : avc1
Codec ID/Info : Advanced Video Coding
Duration : 5mn 14s
Bit rate mode : Variable
Bit rate : 1 240 Kbps
Maximum bit rate : 5 456 Kbps
Width : 1 280 pixels
Height : 720 pixels
Display aspect ratio : 16:9
Frame rate mode : Variable
Frame rate : 23.976 fps
Minimum frame rate : 23.810 fps
Maximum frame rate : 24.390 fps
Color space : YUV
Chroma subsampling : 4:2:0
Bit depth : 8 bits
Scan type : Progressive
Bits/(Pixel*Frame) : 0.056
Stream size : 46.4 MiB (91%)
Tagged date : UTC 2010-09-28 18:04:11
Audio #2
ID : 2
Format : AAC
Format/Info : Advanced Audio Codec
Format profile : LC
Codec ID : 40
Duration : 5mn 14s
Bit rate mode : Variable
Bit rate : 122 Kbps
Maximum bit rate : 155 Kbps
Channel(s) : 2 channels
Channel positions : Front: L R
Sampling rate : 44.1 KHz
Compression mode : Lossy
Stream size : 4.58 MiB (9%)
Title : (C) 2007 Google Inc. v08.13.2007.
Encoded date : UTC 2010-09-28 18:04:08
Tagged date : UTC 2010-09-28 18:04:11

Создавать темы 01-Мар-2011 17:50

[Профиль]  [ЛС] 

JuliaN ®

Стаж: 7 лет

Сообщений: 45

Симпатии: 1

Нет такие
Complete name Eminem - No Love ft. Lil Wayne 720p ( Live HD ) .mp4
Format : MPEG-4
Format profile : Base Media / Version 2
Codec ID : mp42
File size : 60.8 MiB
Duration : 5mn 10s
Overall bit rate : 1 642 Kbps
Encoded date : UTC 2010-12-18 20:19:27
Tagged date : UTC 2010-12-18 20:19:27
gsst : 0
gstd : 310445
gssd : BD49AA8E6MH1298980694342415
Video
ID : 1
Format : AVC
Format/Info : Advanced Video Codec
Format profile : [email protected]
Format settings, CABAC : Yes
Format settings, ReFrames : 1 frame
Codec ID : avc1
Codec ID/Info : Advanced Video Coding
Duration : 5mn 10s
Bit rate mode : Variable
Bit rate : 2 986 Kbps
Maximum bit rate : 4 981 Kbps
Width : 1 280 pixels
Height : 720 pixels
Display aspect ratio : 16:9
Frame rate mode : Variable
Frame rate : 29.970 fps
Minimum frame rate : 29.412 fps
Maximum frame rate : 30.303 fps
Color space : YUV
Chroma subsampling : 4:2:0
Bit depth : 8 bits
Scan type : Progressive
Bits/(Pixel*Frame) : 0.108
Stream size : 111 MiB
Tagged date : UTC 2010-12-18 20:19:40
Audio
ID : 2
Format : AAC
Format/Info : Advanced Audio Codec
Format profile : LC
Codec ID : 40
Duration : 5mn 10s
Bit rate mode : Variable
Bit rate : 112 Kbps
Maximum bit rate : 132 Kbps
Channel(s) : 2 channels
Channel positions : Front: L R
Sampling rate : 44.1 KHz
Compression mode : Lossy
Stream size : 4.13 MiB (7%)
Title : (C) 2007 Google Inc. v08.13.2007.
Encoded date : UTC 2010-12-18 20:19:34
Tagged date : UTC 2010-12-18 20:19:40
Добавлено спустя 44 секунды:
eminem
вроде твои параметры из клипа да???


Последний раз редактировалось: JuliaN (2011-03-01 17:54), всего редактировалось 1 раз

Создавать темы 01-Мар-2011 17:54

[Профиль]  [ЛС] 

eminem

Стаж: 6 лет 10 месяцев

Сообщений: 104

Практически одинаковые...

Создавать темы 01-Мар-2011 18:03

[Профиль]  [ЛС] 

JuliaN ®

Стаж: 7 лет

Сообщений: 45

Симпатии: 1

eminem
У тя Лайф??

Создавать темы 01-Мар-2011 18:04

[Профиль]  [ЛС] 

eminem

Стаж: 6 лет 10 месяцев

Сообщений: 104

А у тебя не клип разве??? Проглядел)) Выкладывай!!!!! Ссыль в личку, плизз, влом мониторить новые темы!

Создавать темы 01-Мар-2011 18:41

[Профиль]  [ЛС] 

JuliaN ®

Стаж: 7 лет

Сообщений: 45

Симпатии: 1

eminem
не у мя лайф !! чуть попоже ок ??вот скрин если чё

Скриншоты

Создавать темы 01-Мар-2011 18:57

[Профиль]  [ЛС] 

eminem

Стаж: 6 лет 10 месяцев

Сообщений: 104

Ништяк!!!!!!! Жду!!! Пасиба!!!

Создавать темы 01-Мар-2011 19:00

[Профиль]  [ЛС] 

carter

Стаж: 7 лет 1 месяц

Сообщений: 11

нам тоже скин...

Создавать темы 21-Июл-2011 01:04

[Профиль]  [ЛС] 

Zadrot

Стаж: 6 лет 3 месяца

Сообщений: 55

Мне тоже плиз ! eminem клип тоже залей если есть возможность !

Создавать темы 05-Окт-2011 01:34

[Профиль]  [ЛС] 

чудак

Стаж: 6 лет 8 месяцев

Сообщений: 85

у мя давно уже есть этот лайф )))

Создавать темы 12-Апр-2012 02:35

[Профиль]  [ЛС] 
Показать сообщения:    
Ответить на тему

Текущее время: 21-Сен 02:49

Часовой пояс: UTC + 5



Вы не можете начинать темы
Вы не можете отвечать на сообщения
Вы не можете редактировать свои сообщения
Вы не можете удалять свои сообщения
Вы не можете голосовать в опросах
Вы не можете прикреплять файлы к сообщениям
Вы не можете скачивать файлы